<?xml version="1.0" standalone="no"?>
<!DOCTYPE svg PUBLIC "-//W3C//DTD SVG 1.1//EN" "http://www.w3.org/Graphics/SVG/1.1/DTD/svg11.dtd" >
<svg xmlns="http://www.w3.org/2000/svg">
<metadata>Generated by IcoMoon</metadata>
<defs>
<font id="splms" horiz-adv-x="1024">
<font-face units-per-em="1024" ascent="839.6800000000001" descent="-184.32" />
<missing-glyph horiz-adv-x="1024" />
<glyph unicode="&#x20;" d="" horiz-adv-x="512" />
<glyph unicode="&#xe600;" d="M1021.568 367.235c-1.219 16.457-3.663 34.127-7.924 53.029h-401.374v401.374c-18.901 4.267-35.968 6.711-51.206 7.93-14.629 1.822-29.867 2.432-45.105 2.432-17.676 0-34.737-0.61-51.2-2.432-16.457-1.219-34.127-3.663-53.029-7.93v-401.374h-401.368c-4.267-18.901-7.314-35.962-8.533-51.2s-1.829-29.867-1.829-45.105c0-17.676 0.61-34.737 1.829-51.2 1.219-16.457 4.267-34.14 8.533-53.035h401.374v-401.374c18.901-4.273 35.962-7.314 51.2-8.533 15.238-1.213 29.867-1.822 45.105-1.822 17.676 0 34.737 0.61 51.2 1.822 16.457 1.219 34.14 4.261 53.035 8.533v401.374h401.374c4.261 18.901 6.699 35.968 7.918 51.206 1.829 14.629 2.438 29.867 2.438 45.105 0 17.682-0.61 34.743-2.438 51.2z" />
<glyph unicode="&#xe601;" d="M728.914 828.978c-9.15 1.931-18.697 2.613-28.071 2.613-183.723 0.17-367.446 0.116-551.169 0.116h-16.624v-1022.863h13.81c186.082 0 372.191 0 558.273 0.027 3.777 0 7.585 0 11.366 0.254 33.186 2.104 52.877 22.020 54.496 55.178 0.285 5.654 0.339 11.336 0.339 17.021 0.027 292.634 0.027 585.292 0 877.926 0 7.103 0.058 14.207-0.513 21.283-2.074 25.828-16.789 43.187-41.908 48.445zM289.724 171.257v8.611c0.285 0.37 0.794 0.74 0.825 1.137 2.243 21.85 15.001 34.068 35.29 40.829 20.031 6.706 39.638 14.689 59.241 22.59 17.984 7.273 27.477 21.11 29.805 40.289 1.052 8.611-2.841 15.201-7.728 21.511-26.653 34.269-30.885 73.135-21.025 113.71 7.728 31.736 36.057 50.634 69.216 49.297 32.677-1.307 58.335-22.447 64.984-54.157 5.966-28.472 3.411-56.458-7.188-83.48-3.068-7.844-7.616-15.429-12.843-22.050-15.344-19.295-12.758-44.324 8.071-58.246 9.944-6.649 21.65-10.742 32.819-15.313 13.837-5.681 28.044-10.426 41.939-16.026 23.272-9.405 31.424-22.020 31.54-48.699h-324.945zM71.948 831.996c-52.449-0.039-71.69-19.291-71.944-71.979-0.004-0.948 0-1.892 0-2.841 0-291.15-0.023-582.304 0.104-873.455 0.004-9.886 0.852-19.888 2.513-29.632 3.881-22.787 16.936-38.393 40.073-41.989 18.944-2.945 38.366-2.806 58.62-4.101 0 343.087 0 683.148 0 1024-10.53-0.004-19.946 0.004-29.366-0.004zM886.922 645.494v-141.838c0-18.886-15.417-34.303-34.303-34.303h-47.408v210.445h47.408c18.886 0.004 34.303-15.417 34.303-34.303zM886.922 374.155v-142.224c0-18.886-15.417-33.918-34.303-33.918h-47.408v210.060h47.408c18.886 0 34.303-15.421 34.303-33.918zM886.922 102.041v-141.838c0-18.89-15.417-34.303-34.303-34.303h-47.408v210.445h47.408c18.886-0.004 34.303-15.417 34.303-34.303z" horiz-adv-x="887" />
<glyph unicode="&#xe602;" d="M100.002 336.351c34.030-53.188 85.434-73.598 145.603-82.058 24.052-3.376 48.522-14.909 69.159-28.301 21.207-13.733 28.339-37.747 18.817-62.748-9.56-25.114-29.819-34.94-56.071-34.219-32.171 0.873-58.423 16.161-78.151 38.961-25.266 29.25-46.435 62.065-69.311 93.401-4.211 5.804-8.043 11.874-12.064 17.793-5.994 19.044-11.988 38.089-17.982 57.171zM150.8 175.194c31.64-54.136 81.868-75.381 141.392-83.993 24.318-3.528 48.977-13.619 70.336-26.063 24.621-14.34 31.905-43.21 22.876-66.428-9.143-23.521-33.423-39.948-61.838-32.36-25.19 6.715-52.353 18.741-70.411 36.685-27.239 27.011-47.384 61.231-70.449 92.453-4.211 5.691-8.156 11.571-12.216 17.337-6.601 20.79-13.164 41.579-19.689 62.369zM0 653.43c32.398-53.453 82.703-74.433 142.151-82.665 23.483-3.263 47.232-13.164 67.945-25.076 25.683-14.795 33.574-44.349 23.597-68.401-9.674-23.407-34.94-40.517-62.331-31.222-28.832 9.788-59.030 25.418-79.706 47.042-28.832 30.236-49.47 68.363-73.598 103.151-6.032 19.044-12.026 38.127-18.058 57.171zM49.167 497.47c33.195-54.136 84.714-74.319 144.882-82.665 23.293-3.225 46.966-13.733 67.187-26.29 24.583-15.251 31.071-43.4 21.472-66.618-9.826-23.825-34.295-40.555-61.951-31.222-28.832 9.674-59.106 25.114-79.744 46.625-28.946 30.16-49.584 68.287-73.788 102.999-6.032 19.082-12.026 38.127-18.058 57.171zM149.472 832c31.108-42.034 63.355-83.31 92.718-126.52 10.888-16.009 16.844-36.078 21.776-55.161 7.284-28.149-2.807-48.18-25.911-58.613-27.846-12.557-57.513-8.953-69.046 16.616-14.189 31.374-24.242 66.276-27.542 100.496-3.87 40.024 1.442 80.958 2.807 121.513 1.707 0.569 3.452 1.1 5.197 1.669zM420.23 605.401c18.779-76.254 30.008-150.611 0-224.133-7.322-17.944-23.787-33.992-39.682-46.17-16.73-12.823-40.479-14.113-55.237 1.783-12.216 13.164-26.139 36.344-22.193 50.305 7.663 27.315 25.759 52.277 42.338 76.33 17.299 25.114 40.972 46.207 55.919 72.46 10.964 19.272 12.405 44.045 18.855 69.425zM371.974 757.795c16.92-63.697 25.911-129.214 8.232-194.58-6.487-23.976-22.041-47.535-39.151-66.011-16.844-18.172-41.959-21.169-64.835-6.070-23.635 15.63-31.488 39.796-20.941 64.19 10.129 23.445 26.86 44.311 42.452 65.024 15.706 20.865 37.216 38.127 49.394 60.624 12.443 22.952 16.692 50.381 24.849 76.823zM796.301-3.945c-32.019-45.828-68.135-86.231-123.713-99.699-9.94-2.428-23.483-1.555-31.488 3.87-10.015 6.791-19.576 18.741-22.952 30.501-4.249 14.909 4.363 31.033 18.513 35.433 19.272 6.032 40.517 10.319 60.244 8.422 35.699-3.414 69.159-2.845 99.395 21.472zM584.346 144.275c-11.685-39.682 1.745-73.029 19.31-106.49 7.891-15.023 12.937-32.664 14.947-49.736 2.39-20.221-9.636-36.002-26.063-41.048-16.237-4.97-33.157 2.314-43.172 19.841-3.945 6.905-7.398 14.833-8.46 22.686-7.777 57.93 15.251 106.983 43.438 154.746zM469.321 442.309c19.158-65.593 28.832-132.818 8.763-199.587-7.056-23.521-24.432-45.6-41.769-63.924-16.275-17.186-39.758-16.351-60.244-3.452-21.586 13.619-32.133 36.23-22.611 58.499 11.381 26.594 27.732 52.733 47.611 73.636 47.839 50.305 59.523 69.766 68.249 134.829zM712.005 340.145c-11.116-41.389 4.78-75.229 22.952-109.221 6.867-12.823 10.812-28.149 12.671-42.869 2.58-20.524-9.257-37.482-26.29-42.869-16.237-5.159-33.119 1.935-43.248 19.386-3.983 6.867-7.587 14.758-8.574 22.611-7.284 56.868 14.302 105.617 42.49 152.963zM648.536 241.849c-9.977-37.823 2.314-69.842 19.044-101.747 7.929-15.137 13.582-32.474 16.389-49.508 3.301-20.107-9.143-37.785-26.025-43.172-16.199-5.159-34.181 1.669-43.135 19.614-5.691 11.381-10.167 24.925-10.395 37.634-0.797 50.305 17.186 95.071 44.121 137.181zM775.018 437.226c-10.85-35.13-2.011-66.238 13.961-96.816 8.043-15.365 15.592-31.715 19.386-48.635 5.691-25.38-6.373-46.094-26.442-51.822-19.576-5.577-41.010 6.336-47.080 31.108-4.515 18.437-5.425 38.961-2.997 57.93 5.122 39.341 20.258 75.381 43.172 108.235zM520.46 277.928c20.941-76.368 32.057-152.128-0.531-227.282-5.197-11.95-14.682-23.142-24.735-31.678-20.183-17.148-43.324-22.611-67.604-7.625-21.852 13.468-31.981 39.834-20.752 66.807 8.46 20.372 20.752 40.858 36.382 56.223 40.669 40.062 77.923 80.768 77.24 143.554zM986.632 289.461c-26.025-40.213-57.74-73.75-100.647-92.567-14.416-6.336-32.133-7.701-47.915-6.411-16.996 1.404-28.718 13.847-30.312 32.626-1.593 18.627 7.322 32.929 23.711 39.037 12.899 4.818 27.277 6.184 41.086 6.867 12.102 0.607 24.28-2.124 36.458-3.035 28.491-2.2 54.478 4.704 77.619 23.483zM923.808 192.91c-29.591-43.286-64.228-80.085-114.001-96.816-20.145-6.753-41.655-6.108-54.971 12.671-6.373 8.991-9.029 25.721-5.653 36.42 7.208 22.838 28.187 28.301 49.091 29.363 10.85 0.531 21.852-0.948 32.702-2.314 33.043-4.135 64.531-1.328 92.832 20.676zM860.984 95.184c-1.973-3.642-3.452-7.625-5.956-10.812-27.504-34.978-57.892-66.959-99.661-82.437-14.151-5.235-31.26-5.349-46.359-3.225-14.568 2.049-24.090 13.847-26.328 30.16-2.276 16.427 4.059 30.501 17.603 36.685 14.037 6.449 30.16 9.067 45.6 10.622 11.988 1.214 24.28-1.745 36.458-2.845 28.453-2.58 54.44 4.097 78.644 21.852zM931.092 439.919c-5.463-47.421-14.037-93.325-39.227-133.729-14.113-22.686-31.45-27.542-49.66-16.465-20.638 12.595-25.911 33.385-12.595 57.285 23.559 42.262 61.306 68.515 101.482 92.908zM378.309-45.449c27.315 8.612 49.47 15.592 76.064 23.976 4.325-16.958 9.029-33.84 12.899-50.912 7.018-30.843 14.871-61.648 19.31-92.908 1.176-8.346-7.474-24.659-13.961-25.987-10.888-2.276-30.957 0.948-34.447 8.081-21.662 44.349-39.796 90.442-59.865 137.75zM566.857-68.021c15.858-10.964 29.591-20.524 45.031-31.222-21.738-28.036-42.717-56.071-65.024-82.893-3.073-3.718-15.213-4.59-18.741-1.442-5.387 4.78-11.647 16.503-9.408 21.321 14.758 31.829 31.678 62.596 48.142 94.236z" horiz-adv-x="987" />
<glyph unicode="&#xe603;" d="M920.070 20.196c-0.054 2.725-3.619 5.872-6.191 7.968-22.351 18.209-46.428 34.443-66.973 54.665-44.502 43.802-73.885 97.097-78.13 162.397-2.886 44.399-2.41 89.034-4.452 133.507-2.468 53.816-9.939 106.878-25.403 158.45-31.213 104.091-90.744 177.988-195.643 203.946-2.791 0.692-6.142 6.829-6.22 10.494-0.841 40.191-27.916 73.251-65.739 79.451-36.091 5.918-72.021-16.963-83.497-54.168-1.677-5.433-2.667-11.103-3.512-16.979-1.362-9.504-3.959-17.725-5.806-18.313-1.048-0.331-2.195-0.679-3.354-0.977-73.351-18.901-128.91-62.376-165.333-132.393-23.059-44.328-36.394-92.048-44.49-141.545-10.54-64.443-12.42-129.494-11.935-194.715 0.402-54.234-14.78-103.362-44.916-147.376-26.786-39.123-60.616-70.025-99.59-95.022-3.417-2.191-8.349-5.91-8.432-9.045-0.687-25.436-0.389-50.896-0.389-76.349 307.458 0 613.3 0 920.286 0-0.004 25.792 0.195 50.905-0.282 76.005zM605.548-104.772h-290.764c-9.078 0-13.294-7.003-9.409-15.638l25.154-55.949c3.885-8.639 14.391-15.638 23.469-15.638h212.999c9.078 0 19.543 7.024 23.373 15.687l24.686 55.854c3.827 8.659-0.431 15.683-9.508 15.683z" horiz-adv-x="920" />
<glyph unicode="&#xe604;" d="M86.951 465.17c-4.13 0-8.38 0.231-12.395 0.57v-588.879c0-37.99 30.872-68.862 68.862-68.862h866.28c37.99 0 68.862 30.76 68.862 68.862v588.879c-4.13-0.343-8.261-0.57-12.395-0.57h-979.213zM772.13 204.413h-391.136c-19.054 0-34.429 15.382-34.429 34.433v91.357c0 19.054 15.378 34.433 34.429 34.433h391.016c19.054 0 34.429-15.378 34.429-34.433v-91.357h0.119c0-19.051-15.382-34.433-34.429-34.433zM1153.112 752.911c0 43.762-35.457 79.089-79.089 79.089h-994.934c-43.632 0-79.089-35.457-79.089-79.089v-158.245h74.556v-59.938h1004.003v59.942h74.556v158.241z" horiz-adv-x="1153" />
<glyph unicode="&#xe605;" d="M374.825 793.455v-585.935l-217.593 217.608c-15.052 15.056-39.458 15.056-54.51 0l-91.432-91.432c-15.056-15.052-15.056-39.458 0-54.51l459.901-459.901c15.052-15.056 39.458-15.056 54.51 0l459.893 459.905c15.052 15.052 15.052 39.458-0.004 54.51l-91.432 91.432c-15.052 15.056-39.458 15.052-54.51 0l-233.558-233.585v601.908c0 21.288-17.256 38.545-38.545 38.545h-154.179c-21.284 0-38.541-17.256-38.541-38.545z" horiz-adv-x="997" />
<glyph unicode="&#xe606;" d="M1012.261 446.979h-601.873l223.528 223.512c15.465 15.461 15.465 40.532 0 55.993l-93.919 93.919c-15.461 15.465-40.532 15.465-55.993 0l-472.407-472.411c-15.465-15.461-15.465-40.532 0-55.993l472.411-472.407c15.461-15.461 40.532-15.461 55.993 0.004l93.919 93.919c15.465 15.461 15.461 40.532 0 55.993l-239.939 239.911h618.28c21.867 0 39.593 17.726 39.593 39.593v158.373c0 21.867-17.726 39.593-39.593 39.593z" horiz-adv-x="1052" />
<glyph unicode="&#xe607;" d="M39.593 446.979h601.873l-223.528 223.512c-15.465 15.461-15.465 40.532 0 55.993l93.919 93.919c15.461 15.465 40.532 15.465 55.993 0l472.411-472.411c15.465-15.461 15.465-40.532 0-55.993l-472.415-472.403c-15.461-15.461-40.532-15.461-55.993 0.004l-93.919 93.919c-15.465 15.461-15.461 40.532 0 55.993l239.939 239.911h-618.28c-21.867 0-39.593 17.726-39.593 39.593v158.373c0 21.863 17.726 39.589 39.593 39.589z" horiz-adv-x="1052" />
<glyph unicode="&#xe608;" d="M374.825-153.455v585.935l-217.593-217.608c-15.052-15.056-39.458-15.056-54.51 0l-91.432 91.432c-15.056 15.052-15.056 39.458 0 54.51l459.901 459.897c15.052 15.056 39.458 15.056 54.51 0l459.897-459.901c15.052-15.052 15.052-39.458-0.004-54.51l-91.432-91.432c-15.052-15.056-39.458-15.052-54.51 0l-233.558 233.585v-601.908c0-21.288-17.256-38.545-38.545-38.545h-154.179c-21.288 0-38.545 17.256-38.545 38.545z" horiz-adv-x="997" />
<glyph unicode="&#xe609;" d="M846.385 765.217c-7.24 38.765-36.465 56.3-79.567 50.908-15.385-1.923-20.401 0.867-17.459 15.876-215.359 0-430.717 0-646.114 0 1.622-11.954 1.508-18.365-15.574-16.064-50.418 6.863-79.944-16.969-85.525-69.084-6.825-63.691 2.451-125.572 30.243-183.607 31.035-64.785 69.046-80.51 144.088-58.261 18.176 5.392 25.68 1.395 34.994-13.538 29.112-46.684 66.746-84.997 117.352-108.679 9.314-4.374 9.54-8.485 5.543-17.158-21.344-46.081-30.205-95.443-36.955-145.332-1.433-10.672 2.413-12.897 11.954-12.859 75.494 0.226 151.026 0.49 226.521-0.151 15.649-0.113 13.915 8.786 12.633 18.214-6.373 46.081-14.367 91.898-33.901 134.585-5.166 11.275-5.43 16.441 7.429 22.173 52.982 23.568 91.106 64.068 121.311 112.336 7.693 12.256 13.915 17.987 29.3 11.615 13.689-5.656 29.112-7.353 43.932-9.88 36.013-6.109 65.275 6.901 84.922 36.503 47.175 70.894 60.373 149.556 44.874 232.403zM173.912 535.491c-15.385-2.941-30.545-7.089-46.006-9.54-25.605-4.073-43.366 9.050-57.205 28.735-23.682 33.825-33.448 72.704-39.256 112.751-2.187 14.895-3.054 29.979-3.959 38.992 0.075 23.154 1.32 40.161 7.542 56.149 9.578 24.587 53.321 34.165 72.628 16.479 3.884-3.545 3.017-7.919 3.809-12.105 14.405-75.419 33.901-149.292 67.839-218.639 3.62-7.504 3.469-11.124-5.392-12.821zM306.122 498.799c-11.841-8.673-19.156-0.151-25.718 9.503-48.532 71.497-77.681 151.253-99.93 233.949-0.49 1.81-0.792 3.658-1.207 5.581 1.018 7.994 3.733 14.858 12.746 16.29 9.314 1.508 15.348-1.961 18.214-11.803 6.75-23.418 13.651-46.873 21.532-69.951 18.704-54.754 41.443-107.623 75.042-155.212 6.712-9.503 10.37-20.25-0.679-28.358zM824.966 711.443c-2.263-47.325-8.56-94.085-30.959-136.621-31.563-59.958-57.809-55.395-118.031-38.426-8.485 2.376-4.978 6.448-2.79 11.011 34.052 70.668 54.415 145.558 68.254 222.41 0.641 3.658 0.867 6.939 4.412 9.729 25.756 20.476 68.518 5.619 75.004-26.887 2.715-13.462 5.883-27.151 4.11-41.216zM621.561 149.648c-0.528 25.793-16.064 40.236-41.782 40.915-15.687 0.415-31.412 0.075-47.099 0.075-86.656 0-173.35 0.113-260.007-0.075-28.131-0.038-44.912-13.915-45.364-39.067-0.603-33.863 0.377-67.802 0.679-101.665h-101.25v-241.831h599.090v241.831h-104.908c0.302 33.297 1.282 66.557 0.641 99.817z" horiz-adv-x="853" />
<glyph unicode="&#xe60a;" d="M794.223-38.453l-135.498 299.948-8.143-5.168c-2.752-1.766-5.062-4.075-6.718-6.718l-34.119-53.6c-10.567-16.623-28.732-27.084-48.436-27.961l-63.505-2.752c-3.195-0.113-6.385-0.994-9.138-2.423l-8.915-4.624-63.29-140.341 87.285-193.507c8.809-19.481 35.446-21.901 47.661-4.404l66.375 95.326c7.482 10.234 17.171 15.629 23.553 11.776l126.803-4.401c20.362-0.665 34.452 20.249 26.086 38.849zM432.191 133.149c-8.582-4.181-18.268-6.491-27.847-6.491-9.686 0-19.371 2.31-27.957 6.828l-15.852 8.257-40.614 21.027c-2.866 1.429-6.056 2.31-9.138 2.416l-63.513 2.752c-19.704 0.881-37.866 11.342-48.429 27.961l-34.123 53.608c-1.762 2.752-4.075 5.062-6.714 6.714l-17.504 11.119-138.024-306.004c-8.257-18.268 5.172-38.853 24.982-38.853h0.994l127.793 4.401c9.024 0 17.39-4.401 22.562-11.776l66.375-95.326c5.504-7.928 14.086-11.776 22.562-11.776 10.238 0 20.362 5.61 25.099 16.177l105.337 233.577 34.123 75.509-0.113-0.117zM100.218 426.602c3.743-7.153 5.83-14.967 6.162-23.001l2.752-63.513c0.442-9.024 5.172-17.171 12.767-22.014l3.966-2.529 28.173-17.833 21.466-13.648c6.828-4.295 12.551-10.132 16.842-16.842l34.119-53.608c4.843-7.595 12.99-12.325 22.014-12.767l63.513-2.752c8.034-0.333 15.848-2.423 23.008-6.162l3.406-1.762 52.946-27.519c3.966-2.091 8.366-3.081 12.661-3.081 4.287 0 8.691 0.991 12.657 3.081l56.466 29.28c1.429 0.767 2.858 1.429 4.401 1.977 5.943 2.423 12.215 3.852 18.604 4.185l1.437 0.106 62.076 2.752c9.028 0.442 17.171 5.176 22.014 12.771l34.123 53.608c4.295 6.82 10.124 12.544 16.842 16.839l53.495 34.010c7.595 4.843 12.328 12.99 12.763 22.014l2.752 63.513c0.333 8.034 2.423 15.848 6.166 23.008l29.28 56.466c4.181 7.924 4.181 17.394 0 25.314l-29.061 56.47c-3.743 7.153-5.833 14.967-6.166 23.005l-2.752 63.4c-0.435 9.028-5.172 17.171-12.763 22.014l-53.6 34.123c-6.828 4.295-12.551 10.124-16.839 16.842l-34.123 53.604c-4.843 7.595-12.99 12.328-22.014 12.771l-63.513 2.752c-8.034 0.329-15.852 2.423-23.008 6.162l-56.466 29.284c-3.962 2.087-8.363 3.077-12.657 3.077s-8.695-0.991-12.657-3.077l-56.47-29.284c-7.16-3.739-14.971-5.837-23.008-6.162l-63.513-2.752c-9.020-0.442-17.167-5.176-22.010-12.771l-34.119-53.6c-4.295-6.828-10.132-12.551-16.842-16.846l-53.608-34.123c-7.595-4.843-12.325-12.986-12.767-22.014l-2.752-63.513c-0.333-8.034-2.423-15.852-6.162-23.005l-29.28-56.462c-4.181-7.928-4.181-17.394 0-25.322l29.28-56.466z" horiz-adv-x="797" />
<glyph unicode="&#xe60b;" d="M89.577-142.62c1.151-27.605 23.869-49.38 51.486-49.38h481.084c27.625 0 50.331 21.775 51.498 49.38l34.355 725.271h-652.785l34.363-725.271zM490.439 402.51c0 11.553 9.363 20.932 20.928 20.932h33.479c11.553 0 20.932-9.379 20.932-20.932v-414.361c0-11.569-9.379-20.932-20.932-20.932h-33.479c-11.553 0-20.928 9.363-20.928 20.932v414.361zM343.945 402.51c0 11.553 9.363 20.932 20.92 20.932h33.487c11.553 0 20.92-9.379 20.92-20.932v-414.361c0-11.569-9.367-20.932-20.92-20.932h-33.487c-11.557 0-20.92 9.363-20.92 20.932v414.361zM197.44 402.51c0 11.553 9.363 20.932 20.932 20.932h33.475c11.557 0 20.932-9.379 20.932-20.932v-414.361c0-11.569-9.375-20.932-20.932-20.932h-33.475c-11.557 0-20.932 9.363-20.932 20.932v414.361zM730.877 779.243h-221.944v41.963c0 5.958-4.835 10.794-10.794 10.794h-233.061c-5.962 0-10.797-4.835-10.797-10.794v-41.947h-221.944c-17.859-0.004-32.337-14.482-32.337-32.353v-101.585h763.214v101.585c0 17.855-14.478 32.337-32.337 32.337v0z" horiz-adv-x="763" />
<glyph unicode="&#xe60c;" d="M95.395 831.945c-23.507-0.004-30.374-7.524-30.378-32.005-0.008-191.788-0.008-383.576-0.004-575.364 0-26.243 6.749-33.361 31.71-33.365 135.026-0.012 270.056-0.004 405.082-0.004 135.454 0 270.909-0.012 406.359 0.012 22.992 0.004 30.409 7.87 30.409 32.092 0.008 192.232 0.008 384.468 0 576.7 0 24.383-6.946 31.927-30.468 31.935-270.897 0.071-541.806 0.075-812.711 0zM987.278 149.429c-4.489 1.077-9.293 0.963-13.951 0.963-314.341 0.039-628.682 0.039-943.024 0.012-4.249 0-8.605 0.224-12.724-0.641-11.018-2.311-17.343-10.032-17.575-21.451-0.228-11.309 5.346-19.729 16.466-22.276 5.326-1.223 10.971-1.281 16.47-1.285 146.209-0.059 292.419-0.047 438.628-0.047-22.764-31.164-45.437-62.387-68.122-93.598-40.107-55.178-80.292-110.305-120.207-165.596-9.422-13.054-6.777-26.569 5.574-33.947 11.392-6.804 26.18-3.443 35.437 8.389 5.66 7.233 10.814 14.796 16.211 22.202 53.393 73.307 106.79 146.614 161.221 221.336 4.057-5.421 7.115-9.407 10.063-13.459 55.296-75.913 110.537-151.858 165.899-227.724 10.153-13.915 24.883-18.007 36.99-10.837 13.243 7.838 15.154 21.691 4.548 36.27-62.305 85.689-124.637 171.363-187.091 256.962 146.253 0 292.501-0.016 438.754 0.059 5.916 0.004 12.080-0.020 17.697 1.608 10.232 2.964 15.393 10.999 15.028 22.025-0.354 10.971-5.869 18.534-16.294 21.038z" horiz-adv-x="1004" />
<glyph unicode="&#xe60d;" d="M702.363 830.54c0-50.11 0-98.572 0-148.912 42.409 0 82.060 0 123.589 0 0-291.425 0-580.82 0-872.246-7.93-0.46-15.745-1.303-23.599-1.303-201.205-0.077-402.41-0.115-603.653-0.038-105.736 0.038-196.416 84.474-197.297 189.903-1.916 228.060-1.724 456.197-0.306 684.258 0.536 88.995 63.825 148.030 156.65 149.065 122.976 1.341 245.99 0.421 369.003 0.46 49.688 0 99.377 0.077 149.065 0 8.007-0.038 15.937-0.69 26.549-1.188zM781.32-135.565c0 257.942 0 511.671 0 765.245-26.855 0-51.757 0-79.685 0 0-184.272 0-367.050 0-551.59-11.033 0-19.040 0-27.047 0-158.872-0.038-317.744 0.958-476.578-0.996-29.077-0.345-59.84-8.658-86.543-20.649-41.796-18.81-58.538-60.875-51.527-111.253 5.478-39.459 33.33-67.004 78.344-76.084 14.251-2.873 29.001-4.712 43.52-4.712 154.773-0.23 309.584 0 464.357 0.077 44.631 0 89.263-0.038 135.158-0.038zM392.587 518.427v-0.077c-47.964 0-95.89-0.268-143.855 0.153-15.554 0.153-29.422-3.065-29.422-20.841 0-17.508 13.945-21.569 29.346-21.53 95.89 0.115 191.819 0.077 287.709 0.038 15.975 0 31.261 3.103 30.572 22.603-0.651 18.121-15.669 19.806-30.533 19.73-47.888-0.23-95.852-0.077-143.816-0.077zM393.009 587.692c47.964 0 95.89 0.192 143.855-0.115 15.056-0.077 29.805 1.877 30.15 20.036 0.345 19.423-15.018 22.335-30.955 22.335-95.086-0.077-190.172-0.115-285.257 0.038-15.975 0-31.683-2.72-31.414-21.913 0.268-19.576 16.473-20.649 32.181-20.534 47.16 0.345 94.281 0.153 141.441 0.153zM392.932 406.983c-48.884 0-97.768-0.153-146.651 0.077-14.749 0.077-27.085-3.525-26.894-20.573 0.192-17.010 12.834-20.266 27.392-20.266 97.768 0.153 195.535 0.153 293.303 0.038 14.634 0 27.277 3.716 27.047 20.611-0.23 16.856-12.987 20.266-27.545 20.189-48.884-0.192-97.768-0.077-146.651-0.077zM704.624-48.908c-27.239 0-53.060 0-78.919 0-144.774 0-289.51 0-434.284 0.038-6.513 0-15.018-2.184-19.078 1.073-7.892 6.321-17.508 15.324-18.351 24.020-0.613 6.206 11.301 14.481 18.849 20.266 3.141 2.414 9.463 0.881 14.328 0.881 159.409 0.077 318.817 0.153 478.226 0.115 42.409-0.038 42.409-0.23 39.23-46.394z" horiz-adv-x="826" />
<glyph unicode="&#xe60e;" d="M0 806.701v-985.602c0-13.972 7.798-17.291 17.415-7.409l280.4 288.035c9.617 9.878 25.209 9.878 34.827 0l280.4-288.035c9.617-9.878 17.415-6.563 17.415 7.409v985.602c-0.004 13.972-11.031 25.299-24.633 25.299h-581.199c-13.598 0-24.625-11.327-24.625-25.299z" horiz-adv-x="630" />
<glyph unicode="&#xe60f;" d="M827.353 622.495c-34.534 71.64-89.275 123.809-160.18 157.609-105.807 50.332-217.492 66.129-331.382 38.208-138.137-34.167-219.697-127.85-256.435-263.048-9.552-35.269-13.226-71.64-13.593-108.011 0-5.878 0.367-11.389 2.572-16.9 6.613-17.635 6.246-34.902 0-52.536-10.287-28.656-22.411-56.577-34.167-84.499-11.389-27.187-25.717-53.271-34.167-81.56v-8.082c2.572-2.204 1.47-5.511 2.204-8.45 3.674-15.063 12.859-22.411 27.921-23.145 7.348-0.367 15.063-0.367 22.043-3.674 11.756-5.878 13.961-16.165 5.143-26.084-14.328-16.532-9.919-36.739 10.287-45.188 8.082-3.306 16.532-6.613 24.615-9.919 5.143-1.837 7.348-4.409 1.837-8.082-16.165-10.287-14.695-23.88-9.185-38.943 1.837-5.143 4.409-8.817 9.185-11.389 6.246-3.674 11.756-8.082 18.002-11.389 12.859-7.348 16.165-18.737 14.695-31.963-1.102-9.185-1.837-19.104-4.776-27.921-12.859-34.534 23.513-79.355 62.823-78.253 29.758 0.735 58.414 8.817 87.070 17.267 10.654 2.939 21.308 6.613 31.595 10.654 6.98 2.939 9.552 1.47 11.022-5.878 5.878-30.126 12.491-59.517 18.737-89.275 0-1.47 0.735-2.572 1.102-4.041h4.041c16.165 8.817 34.167 12.491 51.067 18.002 102.868 32.33 205.369 64.293 308.237 95.888 6.613 2.204 8.45 5.143 7.715 11.389-5.511 38.576-9.919 77.151-15.43 115.359-1.47 9.552 0 17.635 5.143 25.717 30.126 45.188 63.558 88.173 92.949 134.096 28.289 45.188 55.475 91.112 65.762 143.648 17.965 92.618 15.063 183.693-26.452 270.396zM432.781 364.957c-11.756 9.919-23.145 19.839-34.534 29.758-2.204 1.837-3.674 2.204-6.613 1.102-6.246-2.204-12.491-4.041-19.104-5.878-2.939-0.735-4.041-2.204-4.776-5.143-3.306-15.43-6.98-30.86-10.654-47.025h-40.045c-3.674 16.165-7.348 31.595-10.654 47.025-0.735 3.306-2.204 4.409-5.143 5.143-6.246 1.837-12.491 3.674-18.737 5.878-2.572 1.102-4.409 0.735-6.613-1.102-11.389-9.919-22.778-19.839-34.534-29.758-0.735-0.735-3.306-1.47-4.409-0.735-10.287 6.613-20.574 13.961-30.86 20.941 6.98 15.063 13.226 29.391 19.839 43.719 1.47 3.306 1.102 5.511-1.102 8.45-4.041 4.409-7.715 9.552-11.022 14.328-1.47 2.572-3.306 3.674-6.246 3.306-14.695-1.47-29.391-2.939-44.086-4.409-3.306-0.367-5.878-0.367-6.98 3.674-3.674 11.022-7.348 21.676-11.389 32.33 2.204 1.47 3.674 2.572 5.143 3.306 12.491 7.348 25.35 14.695 38.208 21.676 2.572 1.47 3.306 2.939 3.306 5.878-0.367 6.613-0.367 12.859 0 19.471 0 2.939-0.735 4.409-3.306 5.878-12.859 6.98-25.717 14.695-38.576 22.043-1.47 0.735-2.572 1.47-4.776 2.572 4.041 11.756 8.082 23.145 12.491 34.534 0.367 1.102 2.572 1.837 4.041 1.837 14.328-1.102 28.656-2.572 42.984-4.041 4.776-0.735 8.082 0 10.654 4.776s6.246 8.817 9.919 13.226c1.837 2.204 2.204 4.041 1.102 6.98-6.613 14.328-13.226 29.023-20.206 44.454 10.287 6.98 20.574 13.961 30.86 20.941 1.102 0.735 3.306 0 4.409-1.102 11.756-9.552 23.145-19.471 34.534-29.391 2.204-1.837 4.041-2.204 6.613-1.102 6.246 2.204 12.859 4.041 19.104 5.878 2.572 0.735 4.041 1.837 4.776 4.776 3.306 15.43 6.98 30.86 10.654 47.025h40.045c3.674-15.798 7.348-31.228 10.654-46.658 0.735-2.939 1.837-4.409 4.776-5.143 6.613-1.837 12.859-3.674 19.104-5.878 2.572-1.102 4.041-1.102 6.246 0.735 11.389 10.287 23.145 19.839 34.534 29.758 1.837 1.837 3.306 2.572 5.511 0.735 9.919-6.613 19.839-13.593 30.126-20.574-5.143-11.022-9.552-20.941-14.328-31.228-1.837-4.776-3.674-9.552-6.246-13.961-1.102-2.204-0.367-4.041 1.102-5.878 4.041-5.143 8.082-10.287 11.756-15.798 1.837-2.572 3.306-3.306 6.246-2.939 14.695 1.47 29.391 2.572 43.719 4.409 4.041 0.367 6.246 0 7.348-4.041 3.674-10.654 7.348-21.308 11.022-32.33-10.287-5.878-19.839-11.389-29.391-17.267-4.776-2.572-9.552-5.143-14.328-8.082-1.102-0.735-2.204-2.939-2.572-4.409 0-6.98 0.367-13.593 0-20.574 0-2.572 0.735-4.041 2.939-5.143 12.859-7.348 25.717-14.695 38.576-22.043 1.47-0.735 2.572-1.837 5.143-3.306-4.041-11.022-8.082-22.411-12.124-33.8-0.735-1.102-2.939-2.572-4.041-2.204-14.328 1.102-29.023 2.572-43.352 4.041-4.409 0.735-7.715 0.367-10.654-4.409-2.572-5.143-6.613-9.552-10.287-13.961-1.47-1.837-2.204-3.674-0.735-6.246 6.613-14.695 13.226-29.391 20.206-44.821-10.287-6.98-20.574-14.328-31.228-20.941-0.772-0.735-3.343 0.037-4.041 0.735zM697.996 288.21c8.45-5.143 17.267-9.919 26.084-15.063 1.102-0.735 1.837-1.102 3.306-2.204-2.572-7.715-5.143-15.43-8.082-23.145-0.367-0.735-1.837-1.837-2.939-1.47-9.552 0.735-19.471 1.47-29.391 2.572-3.306 0.367-5.511 0.367-7.348-2.939s-4.409-6.246-6.98-9.552c-1.102-1.47-1.47-2.572-0.367-4.409 4.409-9.919 8.817-19.839 13.593-30.493-6.98-4.776-13.961-9.552-21.308-14.328-0.367-0.367-2.204 0-2.939 0.735-7.715 6.613-15.798 13.226-23.513 20.206-1.47 1.102-2.572 1.47-4.409 0.735-4.041-1.47-8.45-2.939-12.859-4.041-2.204-0.367-2.939-1.47-3.306-3.306-2.572-10.654-4.776-21.308-7.348-32.33h-27.554c-2.204 11.022-4.776 21.676-6.98 31.963-0.735 2.204-1.47 3.306-3.674 3.674-4.409 1.102-8.45 2.572-12.859 4.041-1.837 0.735-2.939 0.735-4.409-0.735-7.715-6.98-15.43-13.593-23.513-20.206-0.735-0.735-2.572-1.102-3.306-0.735l-20.941 14.328c4.776 10.287 9.185 20.206 13.593 29.758 1.102 2.572 0.735 4.041-0.735 5.878-2.939 3.306-5.143 6.613-7.348 9.919-1.47 1.837-2.572 2.204-4.409 2.204-10.287-1.102-20.206-1.837-30.126-2.939-2.572-0.367-4.041-0.367-4.776 2.572-2.572 7.348-5.143 14.695-7.715 22.043 1.47 0.735 2.204 1.47 3.306 2.204 8.817 4.776 17.267 9.919 26.084 14.695 1.837 1.102 2.572 2.204 2.204 4.041v13.226c0.367 2.204-0.367 2.939-2.204 4.041-8.817 5.143-17.635 9.919-26.452 15.063-0.735 0.367-1.47 1.102-2.939 1.837 2.572 8.082 5.511 15.798 8.45 23.513 0 0.735 1.837 1.47 2.572 1.47 9.919-1.102 19.839-1.837 29.391-2.939 3.306-0.367 5.511 0 7.348 3.306s4.409 6.246 6.98 8.817c1.102 1.837 1.47 2.939 0.735 4.776-4.776 9.919-9.185 20.206-13.961 30.493 6.98 4.776 13.961 9.919 20.941 14.328 0.735 0.367 2.572 0 3.306-0.367 8.082-6.98 15.798-13.593 23.513-20.574 1.47-1.102 2.572-1.47 4.409-0.735 4.409 1.47 8.817 2.939 13.226 4.041 1.837 0.735 2.572 1.47 2.939 3.306 2.572 10.654 4.776 21.308 7.348 32.33h27.554c2.572-11.022 4.776-21.676 7.348-31.963 0.367-2.204 1.102-2.939 3.306-3.674 4.409-1.102 8.45-2.572 12.859-4.041 1.837-0.367 2.939-0.367 4.409 0.735 7.715 6.98 15.43 13.593 23.513 20.206 1.102 1.102 2.204 1.837 3.674 0.735 6.613-4.776 13.593-9.552 20.574-14.328-3.306-7.348-6.613-14.328-9.552-21.308-1.47-3.306-2.939-6.246-4.409-9.552-0.735-1.47-0.367-2.572 0.735-3.674 2.572-3.674 5.511-7.348 8.082-11.022 1.102-1.837 2.204-2.204 4.041-1.837 9.919 0.735 20.206 1.837 30.126 2.939 2.572 0 4.041 0 5.143-2.939 2.204-7.348 4.776-14.695 7.348-22.043-6.98-4.041-13.593-7.715-20.206-11.756-3.306-1.837-6.613-3.306-9.552-5.511-1.102-0.735-1.837-2.204-1.837-2.939v-13.961c0-1.874 0.367-2.939 2.204-3.674zM788.778 526.239c-0.367-0.735-1.837-1.47-2.939-1.47-9.552 0.735-19.471 1.837-29.391 2.939-2.939 0.367-5.143 0-6.98-3.306s-4.776-6.246-7.348-9.185c-1.102-1.47-1.47-2.572-0.367-4.409 4.409-9.919 8.817-20.206 13.593-30.86-6.98-4.776-13.961-9.552-21.308-14.328-0.367-0.367-2.204 0-2.572 0.735-8.082 6.613-15.798 13.226-23.88 20.206-1.47 1.47-2.572 1.47-4.409 0.735-4.041-1.47-8.45-2.572-12.859-4.041-2.204-0.367-2.939-1.47-3.306-3.306-2.204-10.654-4.776-20.941-7.348-31.963h-27.554c-2.204 10.654-4.776 21.308-6.98 31.963-0.367 2.204-1.47 2.939-3.674 3.674-4.409 1.102-8.45 2.204-12.491 3.674-2.204 0.735-3.306 0.735-4.776-0.735-7.715-6.613-15.43-13.593-23.513-20.206-0.735-0.735-2.572-1.102-2.939-0.735-7.348 4.776-13.961 9.552-21.308 14.328 4.776 10.287 9.185 20.206 13.593 30.126 1.102 2.204 0.735 3.674-0.735 5.511-2.939 3.306-5.143 6.613-7.348 9.919-1.102 1.837-2.572 2.572-4.409 2.204-10.287-1.102-20.206-1.837-30.126-2.939-2.204-0.367-4.041 0-4.776 2.572-2.572 7.348-5.143 14.695-7.715 22.043 1.47 1.102 2.204 1.47 3.306 2.204 8.817 5.143 17.635 9.919 26.084 15.063 1.837 0.735 2.572 1.837 2.572 3.674-0.367 4.409-0.367 8.817 0 13.226 0 2.204-0.735 3.306-2.204 4.041-9.185 5.143-18.002 10.287-26.452 15.063-1.102 0.735-1.837 1.102-3.306 1.837 2.939 8.082 5.511 15.798 8.45 23.88 0.367 0.735 1.837 1.102 2.572 1.102 9.919-0.735 19.839-1.837 29.391-2.939 3.306-0.367 5.511 0 7.348 3.306s4.409 6.246 6.98 9.185c1.102 1.47 1.47 2.572 0.735 4.776-4.776 9.919-9.185 19.839-13.961 30.493 6.98 4.776 13.961 9.552 21.308 13.961 0.367 0.735 2.204 0 2.939-0.367 8.082-6.613 15.798-13.593 23.513-20.206 1.47-1.47 2.572-1.47 4.776-1.102 4.041 1.837 8.45 2.939 12.859 4.409 1.837 0.367 2.572 1.102 3.306 2.939 2.204 10.654 4.776 21.308 6.98 32.33h27.554c2.572-11.022 5.143-21.308 7.348-31.963 0.367-2.204 1.102-2.939 3.306-3.306 4.409-1.47 8.817-2.572 12.859-4.041 1.837-0.735 2.939-0.735 4.409 0.367 7.715 6.98 15.798 13.593 23.513 20.574 1.102 1.102 2.204 1.47 3.674 0.367 6.98-4.776 13.593-9.185 20.574-13.961-3.306-7.715-6.246-14.695-9.552-21.676-1.47-2.939-2.572-6.246-4.409-9.552-0.735-1.47-0.367-2.572 0.735-3.674 2.939-3.674 5.511-7.348 8.082-11.022 1.102-1.47 2.204-2.204 4.041-1.837 10.287 1.102 20.206 1.837 30.126 2.939 2.572 0.367 4.041 0 5.143-2.572 2.204-7.715 4.776-14.695 7.348-22.411-6.98-4.041-13.593-7.715-20.206-11.389-3.306-1.837-6.246-3.674-9.552-5.878-0.735-0.367-1.837-1.837-1.837-2.939v-13.961c0-1.837 0.367-2.939 2.204-3.674 8.817-5.143 17.267-9.919 26.084-15.063 1.102-0.367 1.837-1.102 3.674-2.204-2.976-7.678-5.548-15.393-8.45-23.145zM336.966 626.462c-54.704-0.11-98.974-44.674-98.9-99.525 0.073-54.667 44.968-99.562 99.304-99.231 54.998 0.331 98.717 44.49 98.643 99.635-0.073 55.108-44.197 99.231-99.047 99.121zM598.729 377.595c-37.106 0-66.607-29.722-66.607-67.048 0-37.253 29.611-66.681 66.974-66.534 37.216 0.11 66.901 29.795 66.901 66.901-0.073 36.702-30.273 66.681-67.268 66.681zM663.352 643.876c-37.29-0.037-67.011-29.685-66.901-66.717 0.11-36.812 30.346-66.938 67.195-66.901 37.069 0.037 66.423 29.758 66.423 67.158-0.037 37.694-28.95 66.497-66.717 66.46z" horiz-adv-x="864" />
<glyph unicode="&#xe610;" d="M812.461 117.462h-272.57v124.273h-539.891v-371.034c0-34.635 28.061-62.697 62.697-62.697h1226.81c34.825 0 62.841 28.065 62.841 62.697v371.034h-539.887v-124.273zM1289.507 675.326h-420.731v136.001c0 23.464-15.065 20.556-15.065 20.556h-392.294c0 0-16.519-1.829-16.519-21.12v-135.44h-382.202c-34.635 0.004-62.697-28.061-62.697-62.697v-279.564h1352.348v279.564c0 34.635-28.016 62.701-62.841 62.701zM804.762 675.326h-295.663v109.25h295.663v-109.25z" horiz-adv-x="1352" />
<glyph unicode="&#xe611;" d="M789.156 725.574c0.050 15.001 0.16 29.272-0.019 43.613-0.225 27.47-17.67 50.542-44.51 59.331-26.394 8.571-55.135-0.218-71.912-21.866-9.728-12.416-13.867-26.699-13.867-42.192v-38.237c0-6.067-5.005-10.988-11.183-10.988h-68.899c-6.177 0-11.183 4.918-11.16 10.988 0.050 13.069 0.149 25.729-0.023 38.458-0.447 29.887-16.219 53.398-41.94 62.958-42.387 15.711-87.233-13.955-88.352-58.892-0.355-14.081-0.218-28.158-0.145-42.402 0.031-6.067-4.975-10.996-11.152-10.996h-70.793c-6.177 0-11.183 4.918-11.049 10.984 0.389 17.891 1.371 35.343-0.58 52.413-2.684 24.832-18.788 41.421-42.612 49.443-23.374 7.911-45.071 3.406-63.97-12.637-16.776-14.172-22.48-32.85-22.37-53.944 0.088-11.935 0.107-23.87 0.111-36.37 0.004-6.067-5.005-10.988-11.183-10.988h-192.365c-6.174 0-11.183-4.918-11.183-10.988v-884.274c0-6.067 5.005-10.988 11.183-10.988h997.496c6.177 0 11.183 4.918 11.183 10.988v884.606c0 6.067-5.005 10.988-11.183 10.988h-208.358c-6.174-0.004-11.183 4.925-11.164 10.992zM305.77-148.269h-250.184c-6.177 0-11.183 4.918-11.183 10.988v174.81c0 6.067 5.005 10.988 11.183 10.988h250.184c6.177 0 11.183-4.918 11.183-10.988v-174.81c0-6.071-5.009-10.988-11.183-10.988zM305.881 93.455h-250.295c-6.177 0-11.183 4.918-11.183 10.988v184.92c0 6.067 5.005 10.988 11.183 10.988h250.295c6.177 0 11.183-4.918 11.183-10.988v-184.92c0-6.067-5.005-10.988-11.183-10.988zM305.992 345.181h-250.52c-6.177 0-11.183 4.918-11.183 10.988v177.444c0 6.067 5.005 10.988 11.183 10.988h250.52c6.177 0 11.183-4.918 11.183-10.988v-177.448c0-6.067-5.005-10.984-11.183-10.984zM639.274-148.49h-264.723c-6.177 0-11.183 4.918-11.183 10.988v174.592c0 6.067 5.005 10.988 11.183 10.988h264.723c6.177 0 11.183-4.918 11.183-10.988v-174.592c0-6.067-5.005-10.988-11.183-10.988zM650.934 99.491c-0.168-3.337-5.261-6.036-11.439-6.036h-264.945c-6.177 0-11.183 4.918-11.183 10.988v185.031c0 6.067 2.848 11.148 6.368 11.355 2.127 0.126 4.242 0.237 6.384 0.29 87.122 0 174.245-0.218 261.367 0.221 10.515 0 14.092-2.306 13.981-13.405-0.557-60.763-0.225-121.633-0.336-182.392-0.004-2.004-0.095-3.982-0.199-6.051zM651.24 351.664c0-3.398-5.005-6.155-11.183-6.155h-265.731c-6.177 0-11.183 4.918-11.183 10.988v177.776c0 6.067 2.928 10.988 6.544 10.988h6.544c87.122 0 174.245-0.111 261.367 0.218 10.515 0.111 13.981-2.417 13.867-13.405-0.557-58.125-0.225-116.139-0.225-174.26 0 0 0-2.753 0-6.151zM707.272 300.129h256.446c6.177 0 11.183-4.918 11.183-10.988v-184.698c0-6.067-5.005-10.988-11.183-10.988h-256.446c-6.177 0-11.183 4.918-11.183 10.988v184.698c0 6.071 5.005 10.988 11.183 10.988zM963.833-148.269h-256.56c-6.177 0-11.183 4.918-11.183 10.988v174.592c0 6.067 5.005 10.988 11.183 10.988h256.56c6.177 0 11.183-4.918 11.183-10.988v-174.592c0-6.071-5.009-10.988-11.183-10.988zM963.833 345.51h-256.56c-6.177 0-11.183 4.918-11.183 10.988v177.009c0 6.067 5.005 10.988 11.183 10.988h256.56c6.177 0 11.183-4.918 11.183-10.988v-177.009c0-6.071-5.009-10.988-11.183-10.988z" horiz-adv-x="1020" />
<glyph unicode="&#xe612;" d="M1130.031 644.343c-57.577 0.059-115.155 0-172.732 0h-12.979v100.551c0 48.081-32.058 87.105-71.576 87.105h-438.9c-39.518 0-71.545-39.024-71.545-87.105v-100.551h-13.415c-59.029 0-118.057 0.145-177.090-0.027-96.543-0.263-171.743-75.726-171.771-172.242-0.027-163.557-0.027-327.087 0-490.644 0-99.214 73.926-173.403 172.963-173.403 319.332-0.059 638.669-0.027 958.001 0.059 10.598 0 21.401 0.027 31.764 1.946 88.007 16.086 143.812 83.477 143.812 173.226 0.027 161.612 0.027 323.223 0 484.808 0.004 102.293-74.008 176.16-176.533 176.278zM474.723 713.127c0 32.085 26.017 58.071 58.071 58.071h240.994c32.085 0 58.071-25.986 58.071-58.071v-12.458c0-32.085-25.986-58.071-58.071-58.071h-240.994c-32.054 0-58.071 25.986-58.071 58.071v12.458zM649.754-75.014c-163.965 1.247-297.991 138.152-296.829 303.278 1.134 165.126 136.7 298.893 301.65 297.673 165.707-1.247 300.258-136.324 299.124-300.344-1.165-167.625-136.877-301.858-303.945-300.607zM653.209 427.743c-111.020-0.063-202.279-90.188-202.268-199.746 0.012-112.476 89.875-203.774 201.589-204.809 110.35-1.024 203.884 92.565 203.138 203.252-0.753 111.773-90.863 201.366-202.46 201.303z" horiz-adv-x="1307" />
<glyph unicode="&#xe613;" d="M1003.015 154.566c63.183 159.766 127.187 319.209 190.897 478.766 1.175 2.942 2.131 5.969 3.181 9.429 1.598 5.262-9.111 9.519-23.947 9.519-306.747 0-611.449 0-917.111 0-14.836 0-29.304 11.769-32.316 26.297-8.917 43.020-17.674 85.272-26.351 127.122-3.012 14.527-17.49 26.302-32.326 26.302-46.818 0-92.74 0-138.189 0-14.836 0-26.854-12.028-26.854-26.864 0-4.64 0-9.27 0-13.91 0-14.836 12.013-26.869 26.849-26.869 27.835 0 55.267 0 82.843 0 14.836 0 29.249-11.784 32.201-26.326 50.502-248.618 100.761-496.046 151.133-744.017 2.952-14.537-5.417-32.241-15.384-43.234-13.86-15.289-22.413-35.372-22.339-57.024 0.154-47.067 38.758-85.686 85.705-85.735 46.724-0.045 86.462 39.146 86.627 85.437 0.035 10.395-1.947 20.447-5.561 29.787-5.352 13.835-1.344 23.155 13.492 23.155 142.102 0 284.055 0 426.033 0 14.836 0 18.839-9.32 13.382-23.115-3.57-9.031-5.651-18.734-5.895-28.806-1.090-45.374 39.226-86.149 85.516-86.482 46.918-0.339 86.308 38.091 86.811 84.695 0.284 26.237-12.158 50.423-31.395 66.578-11.361 9.539-22.846 22.772-22.846 33.695s-12.023 19.78-26.859 19.78c-191.574 0-382.351 0-573.159 0-14.836 0-29.279 11.769-32.251 26.302-4.799 23.434-9.519 46.485-14.368 70.153-2.977 14.532 0.752 26.307 8.324 26.307 4.909 0 9.31 0 13.711 0 203.567 0 407.14 0.204 610.707-0.388 15.961-0.040 23.713 4.217 29.737 19.451z" horiz-adv-x="1197" />
<glyph unicode="&#xe614;" d="M723.811 607.511v-171.91c-9.692 2.983-20.137 5.594-30.575 8.204v139.094c0 20.883-11.187 50.715-24.985 66.75-17.527 20.51-35.053 41.020-52.953 61.529-13.798 16.035-27.595 32.443-41.765 48.478-13.798 15.662-41.765 28.714-63.021 28.714h-441.524c-20.883 0-38.036-17.154-38.036-38.036v-860.667c0-20.883 17.154-37.664 38.036-37.664h389.314v-44.003h-416.536c-23.12 0-41.765 18.645-41.765 41.765v940.469c0 23.12 18.645 41.765 41.765 41.765h482.913c22.747 0 53.326-14.17 68.615-31.324 15.289-17.899 30.578-35.426 45.867-52.953 19.391-22.374 38.409-44.749 57.8-67.123 14.916-17.527 26.849-50.342 26.849-73.090zM803.691 208.896c6.955 8.264 6.798 16.967-0.034 25.16-5.251 6.298-11.079 12.119-16.654 18.146-7.003 7.574-10.095 16.042-6.545 26.32 2.562 7.425 4.967 14.92 7.037 22.494 3.449 12.608 0.477 19.216-11.512 24.847-6.776 3.185-13.913 5.616-20.946 8.237-10.538 3.93-16.956 10.956-18.216 22.512-0.854 7.801-2.006 15.614-3.692 23.273-2.633 11.944-7.816 16.203-20.059 16.3-7.853 0.063-15.774-0.421-23.556-1.466-11.616-1.555-19.868 3.144-26.13 12.407-4.020 5.948-7.723 12.127-12.030 17.855-8.387 11.146-16.009 12.765-28.449 6.276-4.538-2.368-9.084-4.878-13.193-7.906-13.369-9.845-26.379-9.308-39.67 0.201-4.702 3.367-9.848 6.235-15.088 8.707-10.721 5.053-18.082 3.397-25.235-5.881-4.792-6.22-8.968-12.925-13.264-19.518-5.97-9.162-14.036-13.391-25.167-12.149-8.491 0.947-17.072 1.361-25.619 1.454-9.856 0.108-16.236-5.004-18.284-14.651-1.7-8.010-3.009-16.128-3.964-24.261-1.328-11.336-7.026-18.91-17.739-22.87-7.361-2.722-14.823-5.288-21.886-8.663-11.362-5.437-14.443-12.082-11.459-24.164 1.633-6.612 3.785-13.137 6.228-19.499 4.728-12.313 2.040-22.74-7.115-31.869-4.367-4.356-8.849-8.618-12.884-13.272-9.77-11.269-9.789-19.514-0.052-30.936 3.77-4.423 7.976-8.491 12.179-12.518 9.617-9.218 12.828-19.771 7.824-32.57-2.357-6.026-4.259-12.261-5.914-18.522-3.442-13.026-0.183-20.062 12.108-25.645 6.82-3.099 13.943-5.549 20.969-8.193 10.605-3.99 16.721-11.333 17.691-22.829 0.403-4.766 1.391-9.476 1.887-14.238 2.148-20.566 9.013-26.245 29.512-24.332 3.069 0.287 6.235-0.011 9.222 0.615 17.266 3.613 28.259-3.763 37.182-18.34 16.054-26.23 21.483-27.506 46.986-10.934 15.088 9.804 28.214 10.124 43.455 0.145 25.537-16.717 31.537-15.218 47.21 10.497 8.786 14.417 19.54 22.415 37.048 18.679 4.639-0.988 9.528-0.809 14.305-1.167 14.279-0.716 20.047 3.543 23.165 17.493 1.115 4.982 1.835 10.109 2.148 15.207 1.022 16.609 8.916 27.401 25.339 31.809 5.571 1.495 11.049 3.684 16.214 6.272 10.717 5.374 13.727 12.049 10.714 23.564-1.812 6.929-4.124 13.749-6.567 20.487-4.326 11.929-1.82 21.983 7.227 30.821 5.377 5.258 10.438 10.866 15.274 16.613zM688.385 4.894v-196.894c-23.12 11.933-46.244 21.629-67.123 35.053-20.51 13.052-37.66 13.425-58.543 0-19.764-12.679-41.393-22.001-63.021-32.443-1.492-0.746-2.61-1.492-4.102-2.237v196.521c5.221-4.475 10.068-7.085 13.052-11.187 5.594-6.712 9.696-14.916 15.289-21.629 9.323-11.187 19.391-13.425 33.189-7.458 5.594 2.61 11.56 5.594 16.781 9.323 11.187 8.577 21.629 7.831 32.816-0.373 4.475-3.356 9.692-5.966 15.289-8.577 14.543-6.712 26.103-3.729 35.799 8.95 5.221 7.085 8.95 14.916 14.916 21.256 3.352 3.729 9.319 5.966 15.658 9.696z" horiz-adv-x="809" />
<glyph unicode="&#xe615;" d="M1072.163 666.389c-0.023 14.186-0.748 28.734-3.863 42.497-16.99 75.090-78.689 123.009-157.777 123.040-250.086 0.097-500.175 0.093-750.261 0.008-92.107-0.031-160.143-68.152-160.197-160.313-0.093-162.694-0.116-325.389 0.147-488.083 0.019-13.073 1.074-26.48 4.076-39.158 17.215-72.697 77.002-120.643 151.956-122.128 30.646-0.609 61.31-0.101 95.299-0.101-4.999-23.048-8.396-44.056-14.21-64.374-12.119-42.346-28.032-82.993-56.021-118.072-12.399-15.536-6.705-29.544 13.089-31.15 13.826-1.121 29.622-0.985 41.791 4.584 48.245 22.067 96.303 44.871 142.745 70.467 55.074 30.355 90.618 82.346 132.355 127.263 7.252 7.807 14.252 11.483 25.22 11.452 125.867-0.384 251.742-0.915 377.601 0.031 91.374 0.686 158.106 69.455 158.176 160.903 0.128 161.046 0.132 322.092-0.128 483.135z" horiz-adv-x="1072" />
<glyph unicode="&#xe616;" d="M1090.726 823.276c-198.908-189.095-395.681-376.164-593.38-564.109-13.086-12.443-33.785-11.915-46.217 1.182-69.699 73.407-138.57 145.954-208.269 219.367-12.432 13.097-33.523 14.061-47.116 2.173-61.509-53.798-122.38-107.040-184.727-161.572-13.592-11.888-14.769-32.363-2.619-45.722 138.766-152.614 276.258-303.818 414.621-455.986 12.149-13.358 32.701-14.213 45.918-1.911 276.661 257.454 551.514 513.225 826.944 769.53 13.217 12.302 14.349 33.327 2.532 46.985-54.838 63.371-108.575 125.462-162.585 187.869-11.817 13.652-32.015 14.632-45.101 2.195z" horiz-adv-x="1307" />
<glyph unicode="&#xe617;" d="M942.873 430.85c-10.408 0-19.802-4.081-26.87-10.681l-0.121 0.16-467.924-469.581c-40.696-40.696-94.911-63.083-152.615-63.083s-111.914 22.387-152.572 63.083c-84.179 84.179-84.179 221.116 0 305.225l451.985 451.895c28.632 28.639 66.771 44.427 107.389 44.427s78.761-15.787 107.439-44.427c28.6-28.589 42.93-62.529 41.562-98.197-1.376-35.126-17.717-69.297-47.264-98.832l-361.631-361.561c-16.532-16.532-38.494-25.685-61.867-25.763-44.388 0-67.64 28.008-67.64 55.579 0.109 23.342 9.231 45.292 25.763 61.875l311.782 310.675-0.351 0.351c5.812 6.919 9.465 15.717 9.465 25.462 0 21.911-17.748 39.671-39.671 39.671-9.745 0-18.543-3.653-25.451-9.472l-0.363 0.363-310.979-309.942c-35.278-35.235-49.697-69.608-49.888-118.674 0-38.373 14.177-72.906 39.913-97.215 26.589-25.112 63.516-38.385 106.808-38.385h0.897c45.062 0.203 87.247 17.951 118.713 49.888l360.847 360.765c91.41 91.41 93.804 221.669 5.73 309.782-43.717 43.678-101.904 67.761-163.81 67.761-61.945 0-120.12-24.082-163.767-67.757l-451.973-451.907c-115.212-115.212-115.212-302.699 0-417.954 55.743-55.7 129.947-86.382 208.938-86.382 79.030 0 153.238 30.682 208.977 86.382l467.936 469.573c0 0 10.287 10.135 10.287 27.22 0 21.927-17.76 39.675-39.675 39.675z" horiz-adv-x="983" />
<glyph unicode="&#xe618;" d="M236.738 250.873l245.12-106.246c2.211-0.962 4.002 0.218 4.002 2.628v62.515c0 2.414-1.818 5.080-4.060 5.96l-168.247 66.248c-2.242 0.88-2.239 2.301 0.012 3.165l168.224 64.765c2.246 0.868 4.072 3.523 4.072 5.933v62.982c0 2.41-1.795 3.589-4.006 2.628l-245.12-106.203c-2.211-0.958-4.002-3.691-4.002-6.1v-52.175c0-2.41 1.795-5.143 4.006-6.1zM541.951 94.367c6.863 0 12.158 1.542 15.736 4.652 3.578 3.072 6.299 7.389 8.074 12.96 1.76 5.513 3.796 13.061 6.124 22.619l70.461 290.116c3.519 13.746 5.279 23.246 5.279 28.408 0 7.054-2.211 12.61-6.645 16.655-4.481 3.975-10.85 6.023-19.263 6.023-9.717 0-16.246-2.85-19.652-8.584-3.36-5.688-6.821-16.25-10.515-31.709l-70.227-290.061c-3.36-15.459-5.061-25.060-5.061-28.914 0-14.778 8.584-22.163 25.69-22.163zM681.81 144.179l245.124 106.69c2.211 0.962 4.002 3.695 4.002 6.104v51.665c0 2.41-1.795 5.139-4.010 6.093l-245.112 105.752c-2.215 0.954-4.006-0.226-4.006-2.636v-62.009c0-2.414 1.822-5.069 4.068-5.941l168.738-65.26c2.246-0.868 2.254-2.289 0.008-3.169l-168.753-66.252c-2.242-0.88-4.060-3.55-4.060-5.96v-62.461c0-2.402 1.791-3.578 4.002-2.616zM1093.834 832h-1023.996c-38.592 0-69.838-31.246-69.838-69.834v-884.402c0-38.518 31.246-69.764 69.838-69.764h1023.996c38.592 0 69.838 31.246 69.838 69.764v884.402c-0.004 38.588-31.25 69.834-69.838 69.834zM1093.834-122.236h-1023.996v768.034h1023.996v-768.034z" horiz-adv-x="1164" />
<glyph unicode="&#xe619;" d="M1130.247 830.192v1.808h-1065.928v-1.808c-34.475-2.448-60.233-30.57-64.319-64.777v-719.139c0-13.813 3.538-25.448 9.387-35.951 13.454-24.313 33.306-36.635 60.778-36.635h384.756v-83.335h-120.28c-7.23 0-13.095-6.020-13.095-13.443v-55.473c0-7.427 5.864-13.443 13.095-13.443h525.834c7.234 0 13.095 6.016 13.095 13.443v55.473c0 7.423-5.861 13.443-13.095 13.443h-120.81v83.335h384.677c27.536 0 47.573 12.327 60.857 36.635 6.020 11.014 9.916 22.826 9.916 35.951v719.139c-4.071 34.206-31.547 62.329-64.868 64.777zM1130.247 759.414v-713.139c0-4.196-1.763-6.004-5.91-6.004h-1054.173c-4.082 0-5.845 1.808-5.845 6.004v719.139h1065.928v-6.001z" horiz-adv-x="1195" />
<glyph unicode="&#xe61a;" d="M700.793 691.559c-18.084 20.778-35.784 41.555-53.868 62.333-14.236 16.16-28.088 32.705-42.325 48.866s-42.709 29.243-63.872 29.243h-447.872c-21.162 0-38.477-17.315-38.477-38.477v-36.295h-15.903c-21.162 0-38.477-17.315-38.477-38.477v-872.274c0-21.162 17.315-38.477 38.477-38.477h594.47c21.162 0 38.477 17.315 38.477 38.477v36.295h15.903c21.162 0 38.477 17.315 38.477 38.477v702.59c0 21.162-11.158 51.563-25.010 67.72zM172.377 322.438h327.055c21.162 0 38.477-16.93 38.477-38.092 0-20.778-17.315-38.092-38.477-38.092h-327.055c-21.547 0-38.477 17.315-38.477 38.092 0 21.162 16.93 38.092 38.477 38.092zM133.9 435.56c0 21.162 17.315 38.477 38.477 38.477h326.67c21.162 0 38.477-17.315 38.477-38.477s-17.315-38.092-38.477-38.092h-326.67c-21.162 0-38.477 16.93-38.477 38.092zM172.377 165.836h326.67c21.162 0 38.477-16.93 38.477-37.323 0-20.778-17.315-37.323-38.477-37.323h-326.67c-21.162 0-38.477 16.545-38.477 37.323 0 20.393 17.315 37.323 38.477 37.323zM690.789-32.963c0-13.328-8.084-24.625-19.365-30.278v612.308c0 21.162-11.158 51.559-25.010 67.72-18.084 20.778-35.784 41.555-53.868 62.333-14.236 16.16-28.088 32.705-42.325 48.866s-42.709 29.239-63.872 29.239h-394.643c4.198 14.171 16.826 24.756 32.317 24.756h400.93c18.854 0 44.633-11.543 57.331-26.164 12.697-14.236 25.010-29.243 37.707-43.479 16.16-18.854 31.936-37.323 48.096-55.792 12.697-14.621 22.701-41.94 22.701-60.794v-628.714z" horiz-adv-x="726" />
<glyph unicode="&#xe61b;" d="M510.601-192c-76.16 0-145.655 13.105-208.541 39.2-62.832 26.206-116.478 61.936-160.997 107.405-44.519 45.361-79.127 99.342-103.877 161.724-24.811 62.386-37.186 130.256-37.186 203.614 0 72.463 12.375 140.221 37.182 203.053 24.75 62.832 59.357 116.928 103.877 162.396 44.519 45.361 98.166 81.198 160.997 107.293 62.889 26.21 132.385 39.315 208.545 39.315 76.102 0 145.655-12.878 208.483-38.639 62.832-25.649 116.536-61.375 160.997-107.293 44.519-45.918 79.184-100.014 103.934-162.396s37.129-130.252 37.129-203.725c0-73.358-12.375-141.228-37.129-203.614-24.75-62.382-59.415-116.367-103.934-161.724-44.461-45.472-98.166-81.198-160.997-107.405-62.832-26.099-132.381-39.204-208.483-39.204zM510.601-90.080c62.382 0 118.327 10.526 167.884 31.583 49.557 21.168 91.502 50.065 125.944 86.686 34.385 36.737 60.76 80.080 79.127 130.141 18.313 49.949 27.494 103.823 27.494 161.612s-9.185 111.774-27.494 161.724c-18.366 50.065-44.742 93.408-79.127 130.029-34.438 36.737-76.383 65.629-125.944 86.798-49.557 21.057-105.502 31.583-167.884 31.583-62.44 0-118.381-10.526-167.942-31.583-49.504-21.164-91.505-50.057-125.886-86.794-34.438-36.621-60.814-79.964-79.127-130.029-18.366-49.949-27.552-103.934-27.552-161.724s9.185-111.663 27.552-161.612c18.313-50.065 44.688-93.408 79.127-130.141 34.385-36.625 76.383-65.518 125.886-86.686 49.557-21.060 105.502-31.587 167.942-31.587zM652.333 187.899c9.185-14.673 16.295-33.040 21.337-55.103 5.038-21.952 7.559-44.911 7.559-68.766-26.598-10.081-51.575-16.798-74.984-19.934-23.409-3.247-48.439-4.815-75.038-4.815-43.12 0-81.198 7.506-114.184 22.625-33.040 15.23-60.591 35.392-82.597 60.591s-38.75 55.103-50.23 89.488-17.19 70.895-17.19 109.422c0 37.521 5.711 73.581 17.19 107.966s28.224 64.734 50.23 90.829c22.006 26.206 49.054 47.040 81.198 62.609 32.086 15.68 68.823 23.409 110.095 23.409 31.191 0 57.121-1.791 77.782-5.488 20.607-3.697 44.239-10.526 70.837-20.607 0-18.366-1.849-38.977-5.488-61.936-3.697-22.959-10.134-43.566-19.262-61.936-22.006 7.279-40.376 12.094-55.045 14.446-14.673 2.237-31.191 3.467-49.561 3.467-40.376 0-71.567-13.105-93.573-39.312-22.006-26.095-33.040-63.95-33.040-113.454 0-52.301 11.702-90.829 35.111-115.694 23.409-24.75 53.869-37.071 91.502-37.071 21.11 0 38.528 0.895 52.301 2.686 13.778 1.906 32.090 7.394 55.049 16.579z" horiz-adv-x="1021" />
<glyph unicode="&#xe61c;" d="M1515.893 706.561c0 69.194-56.246 125.439-125.518 125.439h-1264.936c-69.194 0-125.439-56.246-125.439-125.439v-70.286h1515.893v70.286zM0.087 425.416v-491.862c0-69.273 56.096-125.554 125.364-125.554h1264.956c69.273 0 125.554 56.281 125.554 125.554v491.862h-1515.874zM465.599-13.174c0-5.269-4.331-9.41-9.41-9.41h-269.932c-5.084 0-9.41 4.141-9.41 9.41v87.908c0 5.084 4.331 9.41 9.41 9.41h269.932c5.084 0 9.41-4.331 9.41-9.41v-87.908z" horiz-adv-x="1516" />
<glyph unicode="&#xe61d;" d="M697.139 680.615c-19.32 22.379-38.519 44.755-57.963 67.134-15.163 17.732-30.449 35.34-45.856 52.948-15.043 17.241-45.736 31.303-68.725 31.303h-483.14c-22.87 0-41.455-18.586-41.455-41.575v-940.973c0-22.866 18.586-41.455 41.455-41.455h641.131c22.99 0 41.575 18.586 41.575 41.455v758.038c0 22.986-12.107 55.637-27.023 73.125zM471.524 436.171h56.128v-84.132h-56.128v84.132zM392.163 595.139h55.761v-243.343h-55.761v243.343zM225.492 582.422c43.167 0.491 85.967-44.268 85.843-85.967h-85.843v85.967zM224.881 477.135c27.637 0.124 55.27 0.124 82.907 0 1.221 0 2.445-0.367 4.524-0.858-5.014-37.418-23.967-64.198-57.963-79.728-32.895-15.039-74.593-9.047-100.639 14.676 21.645 21.645 42.8 42.676 64.078 63.711 1.588 1.464 4.644 2.198 7.093 2.198zM123.752 522.991c13.575 33.752 48.915 59.917 81.93 59.917 0-30.326 0.124-59.917-0.124-89.513 0-2.202-1.225-5.138-2.936-6.726-20.544-20.788-41.332-41.455-62-62.119-22.986 21.889-30.202 65.055-16.87 98.441zM117.026 268.394h489.746v-44.144h-489.746v44.144zM606.649 44.861h-489.256v44.511h489.256v-44.511zM607.016 139.751h-489.623v44.268h489.623v-44.268zM607.016 351.792h-55.884v192.11h55.884v-192.11z" horiz-adv-x="724" />
<glyph unicode="&#xe61e;" d="M751.191 4.499c-12.668-12.301-33.196-12.301-45.864 0l-386.848 375.79c-12.657 12.301-12.657 32.24 0 44.541l76.907 74.708c12.668 12.301 33.196 12.301 45.864 0l196.461-190.861v491.83c0 17.392 14.515 31.494 32.42 31.494h129.698c17.897 0 32.412-14.102 32.412-31.494v-478.775l183.040 177.811c12.657 12.301 33.185 12.301 45.853 0l76.907-74.708c12.668-12.301 12.668-32.24 0-44.541l-386.848-375.794zM0 70.356v-262.356h1147.452v262.356h-246.747l-147.189-142.989c-13.946-13.544-36.642-13.544-50.576 0l-147.2 142.989h-555.739zM263.607-60.979c0 26.139 21.714 47.241 48.629 47.241s48.629-21.102 48.629-47.241c0-26.143-21.714-47.245-48.629-47.245s-48.629 21.102-48.629 47.245zM90.47-60.979c0 26.139 22.035 47.241 48.629 47.241 26.912 0 48.629-21.102 48.629-47.241 0-26.143-21.714-47.245-48.629-47.245-26.594 0-48.629 21.102-48.629 47.245z" horiz-adv-x="1148" />
<glyph unicode="&#xe61f;" d="M728.497 832h-688.227c-22.244 0-40.27-18.552-40.27-41.432v-941.136c0-22.884 18.026-41.432 40.27-41.432h688.227c22.24 0 40.27 18.552 40.27 41.432v941.136c-0.004 22.88-18.034 41.432-40.27 41.432zM383.407-169.665c-12.488 0-22.608 10.412-22.608 23.272 0 12.836 10.12 23.26 22.608 23.26 12.484 0 22.604-10.424 22.604-23.26 0.004-12.855-10.116-23.272-22.604-23.272zM689.781-105.313h-616.064v850.627h346.094v-259.431c0-4.613 2.573-5.708 5.752-2.447l92.596 95.118c3.174 3.261 8.325 3.261 11.499 0l92.596-95.118c3.174-3.261 5.752-2.166 5.752 2.447v259.431h61.77v-850.627zM622.958 354.696h-477.154c-3.55 0-6.432-2.878-6.432-6.432v-38.811c0-3.55 2.878-6.432 6.432-6.432h477.154c3.55 0 6.432 2.878 6.432 6.432v38.811c0 3.55-2.878 6.432-6.432 6.432zM622.958 258.249h-477.154c-3.55 0-6.432-2.878-6.432-6.432v-38.811c0-3.55 2.878-6.432 6.432-6.432h477.154c3.55 0 6.432 2.878 6.432 6.432v38.811c0 3.55-2.878 6.432-6.432 6.432zM622.958 158.154h-477.154c-3.55 0-6.432-2.878-6.432-6.432v-38.811c0-3.55 2.878-6.432 6.432-6.432h477.154c3.55 0 6.432 2.878 6.432 6.432v38.811c0 3.554-2.878 6.432-6.432 6.432zM622.958 61.707h-477.154c-3.55 0-6.432-2.878-6.432-6.432v-38.811c0-3.554 2.878-6.432 6.432-6.432h477.154c3.55 0 6.432 2.878 6.432 6.432v38.811c0 3.554-2.878 6.432-6.432 6.432z" horiz-adv-x="769" />
<glyph unicode="&#xe620;" d="M1021.543 458.297c-1.415-1.137-2.523-2.049-3.531-3.057-51.92-51.872-103.993-103.593-155.402-155.969-4.717-4.802-7.236-13.791-7.27-20.849-0.471-93.981-0.315-187.97-0.315-281.956 0-2.912 0-5.821 0-8.818 0-4.869-7.536-8.811-16.836-8.811-217.404 0-433.463 0-649.541 0-9.3 0-16.833 7.54-16.833 16.84 0 216.893 0 432.956 0 649.723 0 9.3 4.128 16.847 9.215 16.847 3.179 0 6.191 0 9.204 0 93.455 0 186.918-0.256 280.37 0.445 8.248 0.063 18.444 4.331 24.354 10.108 49.834 48.719 98.891 98.231 148.14 147.551 1.812 1.816 3.531 3.724 5.317 5.758 2.853 3.257-2.364 5.891-11.664 5.891-207.763 0-413.804 0-619.911 0-9.3 0-16.84-7.536-16.84-16.836 0-330.538 0-659.897 0-990.32 0-9.3 7.536-16.844 16.836-16.844 331.471 0 661.546 0 991.502 0 9.3 0 16.836 7.547 16.836 16.844 0 206.581 0 412.192 0 619.566-0.004 9.304-1.619 15.506-3.631 13.887zM321.76 334.737c0-60.428 0-124.323 0-188.945 0-9.3 7.54-16.833 16.84-16.833 64.911 0 128.547 0 188.949 0 9.3 0 22.172 5.328 28.745 11.901 151.015 151.034 303.042 303.075 454.524 454.575 6.577 6.577 6.584 17.24 0.007 23.817-65.993 65.993-132.812 132.812-198.752 198.752-6.577 6.577-17.244 6.573-23.821-0.004-151.519-151.497-303.572-303.527-454.59-454.524-6.573-6.573-11.901-19.441-11.901-28.741z" horiz-adv-x="1025" />
<glyph unicode="&#xe621;" d="M726.010 188.839c-11.259-5.582-19.692-5.219-30.604 0.144-227.636 111.922-455.443 223.473-683.242 335.045-3.457 1.694-7.216 2.711-11.674 4.354 0-240.948 0-480.074 0-720.385 472.037 0 942.459 0 1413 0 0 240.258 0 479.249 0 719.727-4.804-2.061-8.588-3.477-12.204-5.259-225.148-111.081-450.336-222.090-675.276-333.625zM11.857 646.311c58.337-29.236 117.065-57.612 175.65-86.302 170.096-83.308 340.132-166.743 510.415-249.632 6.523-3.174 16.725-4.178 22.925-1.132 227.62 111.798 454.941 224.251 682.441 336.312 8.309 4.095 11.207 8.795 11.128 18.308-0.451 51.87-0.183 103.749-0.275 155.619-0.004 4.107-0.845 8.209-1.324 12.515-470.876 0-940.453 0-1411.613 0-0.502-3.385-1.076-5.446-1.080-7.511-0.064-54.059-0.407-108.122 0.423-162.166 0.088-5.522 6.116-13.404 11.311-16.012z" horiz-adv-x="1414" />
<glyph unicode="&#xe622;" d="M1024 12.171l-204.171-204.171-307.829 307.829-307.829-307.829-204.171 204.171 304.685 307.829-304.685 307.829 204.171 204.171 307.829-307.829 307.829 307.829 204.171-204.171-307.829-307.829z" />
<glyph unicode="&#xe623;" d="M398.071 514.464c113.677-1.815 210.997-35.093 291.77-105.461 28.635-24.947 51.152-54.127 70.259-85.499 1.255-2.060 0.82-5.982-0.538-8.174-63.959-103.433-161.311-165.116-289.998-184.167-126.973-18.795-241.236 9.533-340.292 84.475-36.815 27.852-65.302 62.168-88.206 100.227-1.279 2.124-1.213 6.018 0.098 8.144 63.771 103.549 161.3 163.984 289.658 184.844 7.93 1.288 15.915 2.503 23.936 3.101 15.151 1.13 30.346 1.781 43.312 2.51zM470.683 209.326c76.806 15.208 140.442 49.226 188.568 105.938 3.558 4.193 1.919 6.779-0.982 10.23-28.878 34.373-64.948 60.841-107.523 80.131-25.349 11.483-51.854 20.016-82.54 25.483 46.84-27.108 72.055-63.235 71.947-111.487-0.112-48.12-25.472-84.135-69.471-110.295zM330.293 209.357c-44.013 26.178-69.389 62.171-69.482 110.347-0.093 48.276 25.171 84.384 69.202 111.021-16.644-3.798-33.105-7.693-48.953-13.066-55.639-18.864-102.019-49.269-138.327-92.058-3.774-4.446-3.973-7.445 0.141-11.559 6.861-6.863 12.858-14.443 19.868-21.166 45.879-44.001 102.228-70.964 167.551-83.516zM351.553 339.927c18.489 0.086 33.215 13.247 33.305 29.769 0.092 16.55-15.298 30.691-33.556 30.837-18.167 0.147-33.703-14.019-33.597-30.632 0.112-17.020 14.839-30.065 33.848-29.977z" horiz-adv-x="778" />
<glyph unicode="&#xe624;" d="M475.878 500.411h-162.123v106.278c0 39.912 26.496 49.224 45.119 49.224 18.568 0 114.318 0 114.318 0v175.5l-157.504 0.588c-174.808 0-214.558-130.907-214.558-214.624v-116.965h-101.13v-180.749h101.126c0-232.095 0-511.662 0-511.662h212.626c0 0 0 282.35 0 511.662h143.504l18.623 180.749z" horiz-adv-x="476" />
<glyph unicode="&#xe625;" d="M205.422-188.182c3.018 36.437 5.842 71.164 8.801 105.881 6.405 75.126 12.184 150.319 19.809 225.32 2.004 19.704-5.073 32.72-17.222 46.52-70.722 80.331-140.81 161.221-211.101 241.929-1.453 1.666-2.863 3.368-4.669 5.546-1.927 2.327-1.107 4.762 1.829 5.457 34.192 8.11 66.853 15.933 99.561 23.565 77.27 18.030 154.521 36.153 231.896 53.721 11.726 2.664 19.156 8.234 25.313 18.601 56.071 94.422 112.635 188.554 169.071 282.755 1.69 2.824 3.476 5.589 5.659 8.992 1.631 2.54 4.226 2.521 5.814-0.043 9.174-14.81 17.945-28.797 26.482-42.923 50.175-83.003 100.051-166.189 150.812-248.827 4.49-7.31 13.893-14.181 22.229-16.162 110.052-26.132 220.314-51.387 332.355-77.263 2.94-0.68 3.927-3.232 2.229-5.729-1.756-2.583-3.348-4.906-5.178-7.026-73.359-84.996-146.881-169.852-219.91-255.127-4.261-4.976-6.991-13.482-6.448-20.011 8.495-101.93 17.634-203.806 26.66-305.694 1.049-11.839 2.261-23.666 3.647-37.831 0.295-3.006-1.759-4.603-4.607-3.597-4.871 1.725-8.693 3.033-12.41 4.595-100.082 42.061-200.241 83.928-300.070 126.575-12.491 5.337-22.458 4.937-34.658-0.326-98.582-42.515-197.437-84.405-296.225-126.447-4.564-1.942-9.209-3.69-15.028-5.927-2.82-1.080-4.894 0.466-4.645 3.476z" horiz-adv-x="1075" />
<glyph unicode="&#xe626;" d="M676.848 680.572c-18.678 22.367-37.356 44.849-56.142 67.216-14.77 17.67-29.644 35.229-44.522 52.899-14.659 17.332-44.522 31.313-66.785 31.313h-469.005c-22.259 0-40.395-18.678-40.395-41.606v-940.907c0-22.928 18.136-41.491 40.395-41.491h622.445c22.263 0 40.287 18.567 40.287 41.491v758.049c0 22.928-11.728 55.584-26.279 73.035z" horiz-adv-x="703" />
<glyph unicode="&#xe627;" d="M809.052 329.1l6.309 40.281c2.226 14.518-6.917 26.367-20.342 26.367h-568.232c-13.426 0-22.568-11.849-20.342-26.367l6.309-40.281c2.226-13.752 14.356-24.833 27.34-24.833h541.619c12.983 0 25.113 11.080 27.34 24.833zM765.657 235.075h-509.509c-12.495 0-21.030-10.112-19.127-22.403l5.379-34.456c1.899-11.688 13.103-20.988 24.952-20.988h487.106c11.849 0 23.053 9.3 24.952 20.988l5.379 34.456c1.899 12.291-6.636 22.403-19.131 22.403zM1007.049 100.065c-8.654 10.108-21.15 15.813-34.414 15.813h-927.145c-13.103 0-25.763-5.863-34.456-15.813-8.654-9.95-12.457-23.214-10.554-36.317l37.286-255.748h942.754l37.124 255.748c1.903 13.103-1.899 26.367-10.596 36.317zM120.223 145.275l-48.043 319.889c0 39.346 32.072 71.257 71.419 71.257h727.933c39.473 0 71.38-31.907 71.38-71.257l-42.626-316.248h63.814l42.664 316.248c0 74.571-60.538 135.071-135.237 135.071h-727.929c-74.571 0-135.233-60.5-135.233-135.071l48.043-319.885h63.814zM163.172 651.269h663.796l11.526 49.904c1.134 5.056 0 10.434-3.314 14.56-3.156 3.922-8.051 6.309-13.264 6.309h-654.172c-5.34 0-10.231-2.384-13.587-6.632-3.318-4.125-4.406-9.627-3.153-14.84l12.168-49.3zM228.405 761.227h533.007l9.343 50.711c0.93 4.894-0.323 10.112-3.641 13.872-3.153 3.968-8.047 6.19-13.103 6.19h-518.813c-5.175 0-9.946-2.384-13.264-6.186-3.156-3.925-4.41-9.143-3.479-14.195l9.95-50.392z" horiz-adv-x="1018" />
<glyph unicode="&#xe628;" d="M0 832v-1024h912.282v1024h-912.282zM684.153 753.138v-393.828h-456.024v393.828h456.024zM76.124 753.138h75.885v-78.62h-75.885v78.62zM76.124 595.655h75.885v-78.62h-75.885v78.62zM76.124 438.172h75.885v-78.866h-75.885v78.866zM76.124 280.69h75.885v-78.862h-75.885v78.862zM76.124 123.207h75.885v-78.866h-75.885v78.866zM76.124-113.138v78.616h75.885v-78.616h-75.885zM228.129-113.138v393.828h456.024v-393.828h-456.024zM836.396-113.138h-76.124v78.616h76.124v-78.616zM836.396 44.345h-76.124v78.866h76.124v-78.866zM836.396 201.828h-76.124v78.862h76.124v-78.862zM836.396 359.306h-76.124v78.866h76.124v-78.866zM836.396 517.035h-76.124v78.62h76.124v-78.62zM836.396 674.517h-76.124v78.62h76.124v-78.62z" horiz-adv-x="912" />
<glyph unicode="&#xe629;" d="M771.359 350.787c-27.34 153.542-54.796 307.064-81.813 460.659-1.507 8.559-5.388 11.038-12.928 12.767-76.244 17.49-149.133 3.885-219.978-24.612-50.587-20.346-100.149-43.212-150.555-64.015-49.711-20.519-101.182-34.792-155.482-33.67-20.834 0.43-41.664 3.124-63.201 5.484l-8.539 47.916c-0.53 2.975-3.37 4.954-6.345 4.423l-68.005-12.117c-2.975-0.53-4.958-3.37-4.427-6.345l165.509-928.771c0.53-2.975 3.37-4.954 6.345-4.423l68.005 12.117c2.975 0.53 4.954 3.37 4.423 6.345l-71.26 399.907c70.245-14.523 138.161-4.362 204.002 21.806 54.434 21.633 107.785 45.976 162.020 68.124 52.866 21.595 107.485 36.372 165.298 33.232 22.602-1.23 45.061-5.065 68.085-7.767-0.342 2.706-0.607 5.845-1.153 8.939z" horiz-adv-x="773" />
<glyph unicode="&#xe62a;" d="M1032.027 509.014h286.292v111.994c0.382 48.161-38.988 87.531-87.531 87.531h-326.044l-27.521 52.748c-22.552 43.574-67.655 70.713-116.581 70.713h-603.545c-48.543 0-87.531-38.988-87.531-87.531v-235.455h962.461zM1032.027 449.768h-1032.027l69.566-558.823c0-45.868 38.988-82.944 87.531-82.944h1073.69c48.161 0 87.531 37.077 87.531 82.944l70.331 558.823h-356.623z" horiz-adv-x="1389" />
<glyph unicode="&#xe62b;" d="M1038.523 428.928c-28.177-16.155-54.282-31.118-80.383-46.088-12.726-7.3-25.749-14.148-37.974-22.197-3.613-2.378-6.845-8.072-7.020-12.378-0.753-18.346 0.099-36.75-0.482-55.108-0.229-7.223 1.996-11.162 8.34-14.71 34.75-19.436 69.245-39.324 103.796-59.104 3.927-2.248 7.686-4.787 13.838-8.642-10.837-30.678-21.39-61.31-32.762-91.641-1.189-3.174-7.38-6.753-10.936-6.455-38.911 3.25-77.81 6.803-116.598 11.261-12.787 1.468-21.658 0.497-28.789-12.404-7.391-13.379-18.094-25.034-27.963-36.945-4.78-5.77-5.873-10.232-2.482-17.582 18.174-39.358 35.569-79.076 54.512-121.543-27.875-18.928-55.735-38.089-84.028-56.596-2.336-1.53-8.669 0.149-11.364 2.424-31.401 26.483-62.591 53.216-93.484 80.284-5.724 5.017-10.053 6.286-17.651 3.438-16.806-6.305-34.108-11.456-51.495-15.999-8.045-2.099-11.448-5.873-13.188-13.846-9.127-41.859-18.87-83.588-28.793-127.095-36.123 0-72.036 0-108.553 0-9.839 43.098-19.689 84.762-28.632 126.617-1.874 8.764-5.85 12.202-14.11 14.404-16.97 4.524-33.848 9.659-50.264 15.857-7.426 2.803-11.926 2.038-17.761-3.074-30.885-27.072-62.060-53.827-93.495-80.265-2.914-2.451-9.819-4.137-12.404-2.447-27.975 18.297-55.452 37.339-83.381 56.397 18.469 41.171 35.557 80.039 53.433 118.541 4.283 9.227 3.384 15.276-3.353 22.996-10.691 12.248-20.289 25.562-29.175 39.182-4.585 7.024-9.46 9.154-17.44 8.328-39.683-4.095-79.431-7.586-119.103-11.823-9.334-0.998-15.471-0.44-18.893 10.167-9.445 29.256-19.991 58.163-30.269 87.702 5.587 3.591 9.257 6.187 13.142 8.408 34.552 19.78 69.046 39.653 103.796 59.081 6.707 3.751 9.219 7.877 8.879 15.693-0.757 17.509-0.746 35.098-0.004 52.611 0.329 7.758-2.027 11.976-8.776 15.758-35.102 19.662-69.937 39.798-104.856 59.781-3.246 1.858-6.428 3.831-12.397 7.399 11.001 31.114 21.853 62.461 33.473 93.53 0.998 2.665 7.227 5.158 10.775 4.852 38.907-3.365 77.822-6.822 116.606-11.345 13.024-1.518 21.497 0.336 28.487 12.89 7.238 12.997 17.547 24.419 27.294 35.875 5.231 6.149 6.313 11.005 2.768 18.694-18.125 39.32-35.538 78.957-54.321 120.996 27.791 18.966 55.269 38.008 83.236 56.309 2.6 1.702 9.514 0.099 12.408-2.336 31.439-26.434 62.626-53.177 93.491-80.273 5.85-5.139 10.332-5.915 17.746-3.166 16.848 6.244 34.15 11.383 51.495 16.152 7.292 2.004 11.035 5.12 12.706 12.813 9.101 41.935 18.809 83.745 28.785 127.691 35.921 0 72.162 0 108.725 0 9.858-43.205 19.616-84.926 28.717-126.793 1.744-8.026 5.227-11.689 13.184-13.796 17.387-4.604 34.632-9.915 51.545-16.010 6.837-2.463 11.223-2.264 16.821 2.638 30.896 27.053 62.278 53.56 93.193 80.59 5.109 4.466 8.852 6.382 15.092 2.038 26.763-18.641 53.778-36.915 81.397-55.8-13.314-29.787-25.677-57.441-38.035-85.098-5.609-12.557-10.806-25.321-16.985-37.595-3.155-6.267-1.832-10.404 2.222-15.517 11.162-14.079 22.293-28.242 32.357-43.090 4.416-6.516 8.894-8.649 16.412-7.881 39.691 4.049 79.458 7.361 119.095 11.865 10.301 1.17 16.266-0.191 19.735-10.814 9.54-29.217 19.876-58.171 30.097-87.809zM692.1 315.117c2.635 91.583-72.667 170.774-164.522 173.011-99.258 2.42-178.066-69.096-180.96-164.216-2.749-90.318 72.961-169.355 164.552-171.776 98.405-2.604 178.234 69.306 180.93 162.981z" horiz-adv-x="1039" />
<glyph unicode="&#xe62c;" d="M637.826 135.907c-4.392 2.472-5.935 5.217-5.777 10.254 0.405 12.795-0.189 25.624 0.332 38.412 0.123 3 2.36 6.968 4.863 8.626 8.468 5.611 17.488 10.385 26.299 15.471 18.074 10.435 36.152 20.862 55.668 32.122-7.080 20.658-14.237 40.841-20.843 61.202-2.402 7.404-6.532 8.353-13.666 7.539-27.448-3.139-54.989-5.449-82.476-8.272-5.206-0.536-8.306 0.952-11.364 5.495-6.972 10.35-14.681 20.222-22.408 30.036-2.807 3.563-3.725 6.448-1.539 10.817 4.28 8.557 7.874 17.453 11.761 26.203 8.557 19.277 17.121 38.554 26.342 59.316-19.127 13.161-37.837 25.902-56.37 38.894-4.323 3.031-6.914 1.693-10.45-1.419-21.41-18.841-43.143-37.313-64.541-56.169-3.875-3.417-6.914-3.555-11.65-1.839-11.711 4.25-23.654 7.948-35.697 11.16-5.51 1.469-7.921 4.022-9.131 9.617-6.301 29.18-13.061 58.263-19.886 88.376-25.32 0-50.42 0-75.296 0-6.91-30.63-13.632-59.771-19.94-89.001-1.157-5.364-3.748-7.535-8.8-8.931-12.012-3.324-23.993-6.906-35.662-11.26-5.136-1.917-8.237-1.373-12.29 2.206-21.375 18.876-42.97 37.517-64.745 55.942-2.005 1.697-6.791 2.815-8.592 1.627-19.37-12.756-38.396-26.029-57.642-39.248 13.007-29.299 25.069-56.929 37.621-84.335 2.456-5.36 1.704-8.742-1.917-13.030-6.748-7.986-13.89-15.945-18.903-25.004-4.84-8.75-10.709-10.042-19.728-8.985-26.858 3.154-53.809 5.564-80.752 7.909-2.456 0.212-6.771-1.523-7.462-3.382-8.048-21.653-15.567-43.502-23.183-65.189 4.134-2.487 6.336-3.864 8.588-5.16 24.182-13.929 48.307-27.961 72.616-41.67 4.674-2.634 6.305-5.576 6.077-10.982-0.517-12.205-0.524-24.464 0-36.669 0.235-5.449-1.5-8.326-6.147-10.94-24.066-13.543-47.956-27.394-71.883-41.18-2.692-1.55-5.233-3.359-9.101-5.861 7.119-20.588 14.422-40.737 20.962-61.128 2.372-7.396 6.625-7.782 13.088-7.088 27.472 2.954 54.997 5.387 82.48 8.241 5.526 0.575 8.904-0.91 12.078-5.807 6.154-9.494 12.803-18.776 20.206-27.31 4.666-5.379 5.291-9.598 2.321-16.030-12.382-26.835-24.213-53.925-37.004-82.623 19.343-13.281 38.369-26.554 57.743-39.31 1.789-1.176 6.571-0.004 8.592 1.704 21.768 18.429 43.359 37.073 64.749 55.946 4.041 3.567 7.161 4.095 12.301 2.144 11.368-4.319 23.056-7.897 34.81-11.052 5.719-1.535 8.472-3.929 9.772-10.038 6.193-29.172 13.015-58.213 19.829-88.253 25.289 0 50.161 0 75.176 0 6.872 30.325 13.616 59.408 19.94 88.584 1.203 5.557 3.563 8.187 9.131 9.648 12.039 3.166 24.024 6.756 35.662 11.148 5.26 1.986 8.256 1.103 12.224-2.395 21.394-18.864 42.993-37.498 64.742-55.957 1.866-1.585 6.251-2.753 7.87-1.689 19.593 12.899 38.886 26.257 58.194 39.449-13.123 29.6-25.166 57.284-37.752 84.717-2.348 5.121-1.593 8.233 1.72 12.255 6.833 8.302 14.245 16.424 19.366 25.752 4.936 8.993 11.079 9.667 19.937 8.646 26.862-3.104 53.802-5.584 80.749-7.847 2.464-0.208 6.748 2.287 7.574 4.5 7.874 21.14 15.182 42.491 22.686 63.874-4.257 2.688-6.86 4.458-9.583 6.023-23.932 13.79-47.821 27.653-71.887 41.2zM354.002 47.867c-63.43 1.689-115.863 56.779-113.958 119.731 2.005 66.299 56.582 116.145 125.322 114.459 63.612-1.558 115.759-56.755 113.935-120.591-1.866-65.293-57.149-115.416-125.299-113.6zM785.637 424.512c4.034-19.007 8.48-37.926 12.918-57.496 16.478 0 32.681 0 48.977 0 4.477 19.755 8.873 38.705 12.992 57.712 0.783 3.621 2.321 5.333 5.95 6.286 7.843 2.063 15.652 4.4 23.234 7.265 3.428 1.296 5.379 0.717 7.963-1.562 13.936-12.29 28.011-24.429 42.175-36.456 1.215-1.033 4.072-1.793 5.129-1.099 12.764 8.403 25.335 17.106 37.91 25.698-8.549 19.285-16.397 37.32-24.595 55.19-1.531 3.336-1.037 5.364 1.118 7.982 4.45 5.406 9.282 10.701 12.617 16.774 3.216 5.858 7.219 6.301 12.988 5.634 17.499-2.025 35.049-3.636 52.606-5.113 1.604-0.135 4.396 1.488 4.936 2.931 5.129 13.774 9.891 27.68 14.781 41.612-2.776 1.751-4.469 2.904-6.243 3.926-15.591 8.981-31.154 18.012-46.83 26.839-2.861 1.612-3.868 3.401-3.764 6.679 0.262 8.337-0.123 16.693 0.216 25.023 0.081 1.955 1.539 4.543 3.166 5.618 5.518 3.656 11.391 6.764 17.133 10.080 11.777 6.798 23.554 13.593 36.267 20.928-4.612 13.458-9.274 26.608-13.578 39.869-1.566 4.824-4.257 5.441-8.904 4.909-17.881-2.044-35.824-3.548-53.732-5.387-3.39-0.347-5.41 0.621-7.404 3.579-4.543 6.744-9.563 13.173-14.6 19.566-1.828 2.321-2.426 4.199-1.003 7.045 2.788 5.572 5.133 11.368 7.662 17.071 5.576 12.56 11.156 25.115 17.16 38.643-12.463 8.576-24.649 16.875-36.726 25.339-2.815 1.974-4.504 1.103-6.81-0.925-13.948-12.274-28.108-24.309-42.048-36.595-2.526-2.225-4.504-2.318-7.589-1.199-7.631 2.769-15.409 5.179-23.257 7.269-3.59 0.956-5.16 2.618-5.946 6.266-4.103 19.011-8.507 37.956-12.957 57.573-16.497 0-32.847 0-49.055 0-4.5-19.956-8.881-38.94-12.992-57.982-0.756-3.494-2.441-4.909-5.73-5.819-7.824-2.167-15.633-4.5-23.234-7.334-3.343-1.249-5.368-0.895-8.005 1.438-13.925 12.305-27.996 24.444-42.179 36.449-1.307 1.107-4.427 1.832-5.599 1.060-12.617-8.31-25.015-16.96-37.552-25.57 8.476-19.088 16.331-37.089 24.51-54.943 1.6-3.49 1.111-5.696-1.249-8.487-4.396-5.202-9.050-10.389-12.313-16.289-3.154-5.699-6.976-6.544-12.853-5.854-17.499 2.055-35.053 3.625-52.61 5.152-1.6 0.139-4.411-0.991-4.863-2.202-5.241-14.106-10.138-28.343-15.101-42.472 2.692-1.62 4.13-2.518 5.595-3.359 15.753-9.074 31.47-18.217 47.308-27.148 3.043-1.716 4.107-3.633 3.956-7.153-0.335-7.951-0.339-15.938 0.004-23.889 0.154-3.552-0.979-5.422-4.007-7.126-15.679-8.823-31.243-17.846-46.83-26.828-1.755-1.010-3.409-2.186-5.931-3.818 4.639-13.412 9.394-26.538 13.659-39.823 1.546-4.816 4.315-5.071 8.526-4.616 17.897 1.924 35.832 3.509 53.736 5.368 3.602 0.374 5.8-0.594 7.87-3.783 4.010-6.185 8.341-12.232 13.161-17.792 3.039-3.505 3.447-6.255 1.515-10.443-8.067-17.484-15.776-35.134-24.109-53.829 12.598-8.653 24.996-17.299 37.617-25.609 1.165-0.767 4.28 0 5.595 1.111 14.183 12.008 28.247 24.155 42.183 36.449 2.634 2.321 4.662 2.668 8.013 1.396 7.408-2.815 15.020-5.148 22.678-7.2 3.729-0.987 5.522-2.549 6.367-6.529zM745.113 601.284c1.307 43.193 36.861 75.666 81.643 74.567 41.442-1.014 75.416-36.973 74.228-78.562-1.215-42.538-37.232-75.192-81.628-74.008-41.323 1.103-75.481 36.992-74.243 78.003zM1079.305 119.619c-10.871 6.262-21.718 12.56-32.647 18.71-1.994 1.122-2.695 2.372-2.622 4.654 0.181 5.811-0.085 11.638 0.15 17.445 0.054 1.361 1.072 3.166 2.21 3.918 3.845 2.549 7.94 4.716 11.943 7.026 8.21 4.739 16.42 9.475 25.281 14.588-3.216 9.382-6.467 18.548-9.467 27.795-1.091 3.363-2.965 3.794-6.208 3.424-12.467-1.427-24.977-2.476-37.459-3.756-2.364-0.243-3.775 0.432-5.163 2.495-3.166 4.701-6.667 9.185-10.176 13.643-1.276 1.62-1.693 2.927-0.698 4.913 1.944 3.887 3.575 7.924 5.341 11.9 3.887 8.754 7.778 17.511 11.962 26.939-8.688 5.977-17.187 11.765-25.601 17.665-1.963 1.377-3.139 0.771-4.747-0.644-9.725-8.557-19.593-16.948-29.311-25.513-1.762-1.55-3.139-1.616-5.291-0.837-5.322 1.928-10.743 3.609-16.211 5.067-2.503 0.667-3.598 1.828-4.145 4.365-2.861 13.254-5.931 26.461-9.031 40.139-11.499 0-22.898 0-34.197 0-3.139-13.913-6.193-27.148-9.058-40.421-0.524-2.437-1.704-3.42-3.995-4.057-5.457-1.512-10.898-3.135-16.196-5.113-2.333-0.871-3.741-0.625-5.58 1.003-9.71 8.576-19.516 17.044-29.403 25.412-0.91 0.771-3.085 1.276-3.902 0.74-8.796-5.792-17.438-11.823-26.18-17.827 5.908-13.308 11.387-25.856 17.087-38.304 1.114-2.433 0.775-3.972-0.871-5.915-3.066-3.629-6.309-7.242-8.584-11.356-2.198-3.976-4.863-4.562-8.958-4.080-12.197 1.431-24.437 2.526-36.676 3.59-1.114 0.096-3.073-0.69-3.39-1.535-3.656-9.833-7.068-19.759-10.527-29.608 1.878-1.13 2.877-1.755 3.899-2.345 10.982-6.328 21.938-12.698 32.978-18.926 2.121-1.195 2.861-2.53 2.761-4.986-0.231-5.545-0.235-11.11 0.004-16.655 0.108-2.476-0.683-3.779-2.792-4.967-10.928-6.151-21.78-12.44-32.647-18.703-1.222-0.706-2.375-1.527-4.134-2.661 3.231-9.351 6.548-18.502 9.521-27.765 1.076-3.359 3.008-3.536 5.942-3.22 12.479 1.342 24.98 2.445 37.459 3.744 2.51 0.262 4.045-0.413 5.487-2.638 2.796-4.311 5.815-8.526 9.178-12.405 2.121-2.445 2.402-4.357 1.057-7.28-5.622-12.189-10.998-24.491-16.805-37.525 8.784-6.031 17.426-12.058 26.226-17.85 0.814-0.536 2.985 0 3.902 0.775 9.887 8.368 19.694 16.84 29.407 25.408 1.836 1.62 3.251 1.863 5.588 0.976 5.163-1.963 10.473-3.586 15.81-5.021 2.599-0.698 3.848-1.785 4.438-4.558 2.815-13.25 5.912-26.438 9.004-40.081 11.488 0 22.782 0 34.143 0 3.12 13.77 6.185 26.982 9.054 40.232 0.548 2.526 1.616 3.717 4.149 4.384 5.468 1.438 10.913 3.070 16.196 5.063 2.387 0.902 3.752 0.501 5.549-1.087 9.718-8.568 19.528-17.029 29.403-25.416 0.848-0.721 2.838-1.249 3.575-0.767 8.9 5.858 17.661 11.923 26.43 17.916-5.958 13.443-11.43 26.014-17.145 38.477-1.068 2.325-0.725 3.741 0.779 5.564 3.104 3.771 6.471 7.458 8.796 11.696 2.244 4.084 5.032 4.392 9.054 3.926 12.201-1.411 24.437-2.537 36.672-3.563 1.118-0.093 3.066 1.037 3.44 2.044 3.575 9.602 6.895 19.296 10.304 29.010-1.944 1.219-3.127 2.025-4.361 2.734zM917.754 98.344c-28.81 0.767-52.622 25.786-51.758 54.376 0.91 30.109 25.698 52.749 56.917 51.985 28.891-0.71 52.575-25.775 51.746-54.769-0.848-29.65-25.956-52.413-56.906-51.592z" horiz-adv-x="1084" />
<glyph unicode="&#xe62d;" d="M795.573 633.315c91.224 0 132.316 44.328 132.316 99.347 0 54.682-41.093 99.339-132.316 99.339-85.839 0-153.445-38.525-199.095-83.183-20.049 11.683-43.006 19.141-68.275 19.141-23.946 0-45.983-6.797-65.371-17.815-45.658 43.996-112.932 81.856-197.777 81.856-91.556 0-132.32-44.657-132.32-99.343 0-55.014 40.764-99.347 132.324-99.347h220.165v-825.311h90.192v825.315h220.158zM795.573 765.635c30.078 0 65.955-5.807 65.955-32.978 0-27.507-35.873-33.391-65.955-33.391h-150.878l-1.245 2.985c33.639 32.645 84.76 63.384 152.122 63.384zM411.706 699.266h-146.652c-30.078 0-66.369 5.888-66.369 33.391 0 27.171 36.291 32.978 66.369 32.978 66.036 0 115.913-29.413 149.548-61.15l-2.896-5.219zM0 537.204v-132.734h464.153v199.103h-397.785c-36.623 0-66.369-29.831-66.369-66.369zM66.369-125.635c0-36.538 29.746-66.365 66.365-66.365h331.419v530.522h-397.785v-464.157zM994.258 603.573h-394.885v-199.103h461.254v132.734c0 36.538-29.831 66.369-66.369 66.369zM599.373-192h328.516c36.623 0 66.369 29.827 66.369 66.365v464.157h-394.885v-530.522z" horiz-adv-x="1061" />
<glyph unicode="&#xe62e;" d="M917.422 408.906c0-16.593 0-33.187 0-49.78-1.718-11.659-3.216-23.355-5.153-34.978-37.207-226.459-243.71-375.58-468.634-334.023-155.809 28.801-262.387 122.038-310.12 272.548-48.391 152.593-14.473 292.175 98.683 405.806 207.6 208.513 558.765 128.69 660.518-147.403 13.414-36.366 18.604-74.305 24.707-112.17zM233.879 592.347c19.992 0.073 19.956 0.073 20.248-19.517 0.292-18.859-1.352-37.828 7.931-55.591 9.576-18.348 18.384-37.097 26.864-55.993 5.446-12.171 13.267-19.079 27.266-17.726 12.573 1.243 22.332-4.057 27.302-15.57 18.238-41.995 50.548-70.248 88.266-94.151 14.949-9.466 29.057-17.617 47.477-15.935 13.45 1.243 19.042-5.409 18.421-19.261-0.841-18.933 0.073-37.902-0.292-56.871-0.256-12.463 4.605-19.408 17.653-18.53 12.317 0.841 18.713-3.326 18.896-16.886 0.146-13.267-4.057-20.431-18.238-19.554-13.889 0.877-18.677-6.25-18.384-19.59 0.585-25.475 0.037-50.95 0.183-76.424 0.365-55.591-6.798-47.989 49.67-48.464 7.493-0.073 17.361-1.827 18.64 8.626 1.462 11.842-8.772 9.941-16.191 10.417-3.509 0.219-7.639-0.073-8.699 4.276-1.023 4.057 2.522 6.286 5.080 8.662 9.064 8.479 17.946 17.251 27.339 25.365 44.992 38.961 86.914 79.933 106.285 138.887 8.516 25.95 6.396 36.586-17.397 49.013-5.775 2.997-11.842 5.519-17.324 8.991-48.61 31.103-100.291 46.673-159.355 41.995-35.672-2.814-60.123 26.717-77.338 52.302-19.992 29.715 0.658 56.030 35.672 52.814 10.234-0.95 15.058-5.592 15.058-15.68 0-10.672 0.073-21.345 0.11-31.981 0.037-9.064 3.911-15.241 13.56-14.839 8.662 0.365 11.915 6.36 11.842 14.62-0.11 14.218 1.462 28.618-0.292 42.616-3.253 25.731 6.908 42.909 28.655 55.628 10.014 5.884 19.627 10.38 31.432 10.051 14.802-0.402 29.605-0.183 44.444-0.037 6.36 0.073 15.095-1.060 15.46 7.566 0.439 10.197-9.21 8.479-15.935 9.284-2.339 0.292-4.751 0.256-7.091 0.11-12.098-0.658-17.361 5.446-17.251 17.105 0.073 5.921-0.073 11.842-0.073 17.763-0.037 25.182 0 25.402-24.378 29.093-8.626 1.316-10.745 4.276-4.532 10.965 6.433 6.944 13.048 13.743 19.627 20.577 5.848 6.104 12.317 13.194 9.868 21.601-3.070 10.417-13.779 6.689-21.601 7.273-37.792 3.034-58.259 24.927-58.259 62.938 0 4.13-0.402 8.333 0.073 12.427 1.243 10.892-3.765 13.012-13.596 11.55-31.725-4.824-62.718-12.427-92.141-25.256-58.113-25.256-106.833-62.499-144.954-114.655zM579.269 696.914c0-7.675 0.292-15.351-0.073-23.026-0.475-10.27 4.459-15.058 14.254-16.447 24.89-3.509 24.89-3.618 24.89-29.678 0-5.3-0.11-10.636 0.073-15.935 0.365-10.563 6.835-14.473 16.411-14.035 7.822 0.365 15.131 2.96 21.272 7.822 20.358 16.118 40.277 32.785 60.928 48.574 10.197 7.785 6.762 11.915-1.754 17.69-31.981 21.71-66.3 38.377-103.398 49.159-32.602 9.503-32.638 9.43-32.602-24.122zM0.073 416.033c6.579 47.404 12.865 94.736 28.728 140.349 38.45 110.525 105.993 198.535 201.935 265.055 22.405 15.533 43.603 13.779 56.322-4.24 12.829-18.165 7.164-38.45-15.241-54.093-113.010-78.983-179.493-186.803-196.671-323.461-28.106-223.681 119.406-437.86 338.921-493.122 121.015-30.482 235.852-13.231 343.928 49.195 5.117 2.96 10.088 6.323 15.497 8.589 17.434 7.237 37.39-0.146 45.504-16.447 8.406-16.849 2.741-36.586-14.802-47.66-36.695-23.136-75.876-41.008-117.213-54.239-5.3-1.681-11.879-1.279-16.557-7.968 34.1-17.288 71.052-30.921 86.951-69.992-168.309 0-336.618 0-504.891 0 11.001 30.372 36.842 45.029 63.194 58.625 13.816 7.127 28.764 12.134 43.64 18.311-4.094 6.835-10.563 6.835-15.753 8.881-145.393 56.761-247.585 157.491-306.867 301.751-21.528 52.412-30.117 107.784-36.695 163.594 0.073 18.933 0.073 37.902 0.073 56.871z" horiz-adv-x="917" />
<glyph unicode="&#xe62f;" d="M520.812 239.182c-27.578 20.684-87.499 63.058-87.499 91.489 0 33.311 9.49 49.734 59.688 88.932 51.361 40.167 87.732 93.077 87.732 158.808 0 71.541-29.244 136.458-84.284 167.988h78.009l66.389 69.72c0 0-219.426 0-297.125 0-150.751 0-276.442-111.165-276.442-233.486 0-124.955 82.58-224.577 224.384-224.577 9.838 0 19.444 0.542 28.779 1.239-9.219-17.663-15.765-37.339-15.765-57.984 0-34.705 19.057-54.498 42.684-77.467-17.856 0-35.054-0.504-53.878-0.504-172.636 0-293.484-118.796-293.484-232.828 0-112.289 145.716-182.513 318.351-182.513 196.767 0 317.809 111.669 317.809 223.958 0 90.017-19.444 135.296-115.349 207.225zM349.067 403.413c-80.101 2.479-156.213 75.918-170.002 181.080-13.905 105.162 39.857 185.65 119.919 183.287 80.062-2.44 148.582-88.739 162.371-193.862 13.789-105.162-32.226-172.829-112.289-170.505zM317.693-142.344c-119.299 0-205.52 75.492-205.52 166.245 0 88.894 101.095 165.625 220.472 164.269 27.811-0.232 53.762-4.725 77.274-12.356 64.84-45.047 117.014-73.168 130.184-124.529 2.479-10.342 3.835-21.032 3.835-31.994 0-90.753-58.449-161.635-226.243-161.635zM1022.063 694.922h-137.117v137.078h-68.52v-137.078h-137.039v-68.558h137.039v-137.001h68.52v137.001h137.117z" horiz-adv-x="1022" />
<glyph unicode="&#xe630;" d="M71.687 627.866c-0.557-9.802-0.408-19.641-0.074-29.443 0.186-5.161-1.114-8.539-5.458-11.955-13.886-10.916-15.854-30.779-3.453-42.4 6.423-6.015 7.017-11.621 5.309-19.010-0.854-3.639-1.151-7.426-1.671-11.176-3.713-25.581-7.314-51.2-11.25-76.744-0.891-5.718 0.743-7.314 6.535-7.203 16.336 0.371 32.71 0.297 49.046 0.074 4.79-0.074 5.755 1.040 5.012 5.94-4.678 30.779-8.911 61.633-13.44 92.412-0.78 5.421-0.78 9.505 4.195 13.812 12.067 10.433 13.663 29.962 1.782 40.21-8.725 7.574-9.245 15.557-8.836 25.099 0.149 3.787 0.297 7.574 0.037 11.324-0.334 4.827 1.151 5.569 5.569 3.75 17.599-7.314 35.235-14.554 53.093-21.312 4.938-1.894 6.052-4.492 6.015-9.393-0.297-19.901 0.037-39.764-0.223-59.628-0.074-5.384 0.817-7.351 6.497-5.124 11.732 4.604 23.985 7.388 36.348 9.431 36.423 6.089 71.583 3.379 104.219-15.779 12.735-7.463 23.279-17.45 32.895-28.737 1.299 1.374 2.376 2.413 3.379 3.527 20.346 23.762 46.336 37.165 77.004 41.918 32.079 4.975 63.043 0.111 93.377-10.396 4.901-1.708 6.497-1.114 6.423 4.492-0.26 20.123 0.074 40.247-0.223 60.37-0.074 5.124 1.485 7.388 6.312 9.208 35.197 13.292 70.283 26.881 105.407 40.432 9.728 3.75 19.418 7.648 30.371 11.992-4.233 2.45-7.203 4.233-10.173 5.903-101.285 56.62-202.571 113.204-303.782 169.972-5.643 3.193-9.69 3.564-15.631 0.223-84.504-47.524-169.156-94.751-253.77-142.052-19.715-11.027-39.356-22.091-60.704-34.084 15.408-5.718 28.886-10.99 42.623-15.631 5.309-1.819 7.574-4.121 7.24-10.025zM181.66 647.247c53.353 15.074 107.412 25.47 155.344 24.987 67.128 0.111 124.49-11.398 180.999-28.477 4.195-1.262 5.643-3.156 5.346-7.351-0.334-4.492-0.371-9.059 0-13.552 0.446-5.346-1.597-5.606-6.052-4.233-26.844 8.242-54.058 15.074-81.682 20.346-60.927 11.621-121.78 11.658-182.707 0.111-27.623-5.235-54.875-11.918-81.682-20.383-5.643-1.856-6.609-0.408-6.646 5.049-0.149 18.527-0.334 18.564 17.079 23.502zM520.714 477.98c-0.334 23.205-1.262 23.205-24.356 29.331-1.448 0.371-2.97 0.668-4.344 1.188-5.346 2.079-5.829-0.631-5.124-4.901 1.819-11.176 3.193-22.388 2.896-33.749 0.111-11.844-1.002-23.613-2.97-35.272-7.091-41.732-23.91-78.637-54.764-108.34-48.638-46.819-118.327-49.529-169.453-5.903-37.796 32.264-56.472 74.739-62.746 123.302-2.636 20.309-2.376 40.618 1.337 60.816 0.631 3.49 0.557 5.681-4.418 4.307-8.242-2.265-16.411-4.641-24.356-7.76-2.599-1.040-3.898-2.45-4.158-5.458-5.532-62.004 8.020-119.033 46.002-168.933 28.329-37.239 65.123-61.67 112.647-67.202 48.415-5.643 89.961 10.284 124.713 43.069 50.271 47.45 70.098 107.671 69.095 175.504zM448.983 471.186c-0.074 15.594-11.955 26.955-28.032 26.806-15.074-0.111-27.104-12.252-27.066-27.326 0.037-15.408 12.289-27.363 27.92-27.289 15.742 0.111 27.252 11.881 27.178 27.809zM293.639 470.183c0.149 16.114-11.138 27.735-26.918 27.809-16.188 0.074-27.586-11.138-27.623-27.066s11.473-27.549 27.252-27.512c15.445 0 27.141 11.473 27.289 26.769zM304.369 365.148c-4.678 0.037-6.015-1.077-3.453-5.532 9.653-16.819 24.022-26.138 43.514-25.99 19.195 0.111 33.193 9.579 42.734 26.101 2.673 4.641 0.854 5.421-3.601 5.384-13.069-0.149-26.138-0.074-39.207-0.074v0.037c-13.366 0-26.658-0.111-39.987 0.074zM687.085-71.738c-5.346 40.507-7.797 81.273-16.262 121.594-5.903 27.957-13.255 55.061-23.168 81.645-11.213 30.074-29.554 52.796-60.296 66.459-44.776 19.901-93.674 30.594-134.886 61.41-0.854-3.49-1.931-5.458-1.671-7.314 3.49-27.846 6.72-55.729 11.027-83.427 1.782-11.361 4.827-23.391 1.002-33.749-14.22-38.465-30.185-76.261-45.371-114.355-10.47-26.324-21.646-52.388-30.928-79.157-11.213-32.264-24.096-63.749-41.658-95.382-14.703 39.913-29.146 79.937-44.182 119.738-15.26 40.358-31.41 80.345-46.521 120.703-9.95 26.658-20.643 52.908-17.45 82.981 2.599 24.69 1.040 49.863 1.002 74.813 0 5.049 2.079 10.879-3.23 15-37.982-26.584-80.271-42.883-124.119-56.546-21.423-6.683-42.512-18.564-53.984-38.056-20.049-34.121-32.413-71.546-39.393-110.976-2.896-16.373-3.824-33.081-7.648-49.12-7.129-29.777-6.943-60.222-9.059-90.333-1.002-14.331-0.149-33.304 14.703-40.47 27.995-13.515 57.623-23.873 87.994-31.188 26.509-6.423 53.427-10.841 80.16-16.114 53.279-10.507 106.966-18.601 161.025-18.416 67.053 0.223 132.993 12.512 198.784 25.915 42.4 8.651 83.204 20.309 122.968 36.831 8.131 3.379 14.369 7.648 16.485 15.779 3.601 13.626 6.609 27.289 4.678 41.732zM354.269 131.761c-3.75 1.819-7.426 3.49-11.992 0.26-8.168-5.792-17.116-10.507-25.433-16.076-6.943-4.641-9.839-11.027-6.869-19.455 1.597-4.567 3.342-9.245 3.861-13.997 5.718-52.016 18.156-102.993 24.69-154.935 1.708-13.515 4.121-27.846 9.95-41.88 2.71 10.062 6.869 19.938 7.945 30.148 4.010 38.205 13.143 75.556 18.193 113.575 2.042 15.334 2.488 31.336 6.794 46.15 9.245 31.782 8.799 34.566-19.529 50.643-2.747 1.559-4.864 4.233-7.611 5.569zM392.139 208.282c-3.601 4.641-10.099 1.708-15.037-0.26-17.859-7.203-36.274-5.012-54.244-2.116-6.497 1.040-12.364 5.978-21.794 1.708 14.294-21.2 28.96-40.284 40.507-61.113 6.609-11.918 9.987-6.126 13.849-0.371 10.953 16.411 20.94 33.415 31.856 49.863 2.673 4.010 8.020 8.205 4.864 12.289z" horiz-adv-x="688" />
<glyph unicode="&#xe631;" d="M1072.463 319.018c-4.594 283.596-224.098 512.982-493.495 512.982s-489.036-229.385-493.522-513.093c-49.333-15.694-85.446-65.131-85.446-123.805v-258.132c0-71.193 53.099-128.966 118.728-128.966h94.127v0.752c22.109 1.706 39.671 20.871 39.671 44.644v416.826c0 23.336-17.124 42.385-38.831 44.525 2.42 211.306 165.305 382.497 365.277 382.497 199.983 0 362.842-171.202 365.25-382.524-21.653-2.262-38.536-21.154-38.536-44.498v-416.83c0-23.796 17.5-42.976 39.724-44.648v-0.744h94.1c65.518 0 118.617 57.689 118.617 128.966v258.132c-0.004 58.785-36.197 108.337-85.664 123.916z" horiz-adv-x="1158" />
<glyph unicode="&#xe632;" d="M610.636 661.12c22.006 39.752 49.484 72.667 83.469 100.337 125.676 102.332 320.041 92.356 433.317-23.603 89.948-92.072 112.076-201.403 77.242-323.432-26.967-94.468-78.095-175.868-140.353-250.623-100.711-120.927-223.216-216.288-355.371-300.045-29.3-18.568-59.244-36.152-89.323-53.438-4.422-2.541-12.581-3.238-16.766-0.85-152.048 86.659-294.081 186.651-413.199 316.225-71.392 77.659-130.479 163.433-165.801 263.896-29.264 83.237-34.878 167.064 1.782 249.164 47.702 106.828 130.896 172.284 246.489 188.378 145.361 20.24 258.066-34.925 334.785-161.116 0.688-1.125 1.601-2.116 3.729-4.894z" horiz-adv-x="1220" />
<glyph unicode="&#xe633;" d="M1181.238 425.627c-43.863 30.885-87.717 61.778-131.576 92.663 1.408 3.721 1.726 8.239 1.706 12.656-0.151 32.078-0.061 64.16-0.057 96.241 0 32.082 0.090 64.16-0.037 96.241-0.069 17.785-5.398 23.37-22.967 23.452-42.071 0.191-84.143 0.191-126.21 0.004-17.337-0.077-22.727-5.805-22.8-23.688-0.122-28.28 0.016-56.563-0.106-84.843-86.793 61.123-173.594 122.241-260.383 183.376-19.287 13.588-20.859 13.678-39.698 0.411-110.965-78.151-221.927-156.302-332.896-234.436-77.227-54.377-154.478-108.722-231.701-163.104-15.603-10.991-18.347-18.994-9.566-31.805 25.129-36.661 50.494-73.164 76.266-109.37 3.525-4.95 9.884-7.861 15.497-12.143 7.091 4.173 12.982 7.104 18.31 10.853 9.306 6.55 18.603 13.124 27.913 19.674-1.038-3.717-1.596-7.763-1.584-12.359 0.33-150.729 0.191-301.453 0.212-452.182 0.004-23.855 5.304-29.24 28.683-29.249 94.849-0.020 189.702-0.016 284.551 0 24.156 0.004 28.369 4.323 28.369 29.017 0.008 128.429 0.004 256.862 0.004 385.291 0 5.618 0 11.231 0 17.232 77.837 0 153.851 0 231.171 0 0-6.46 0-12.159 0-17.859 0-128.877-0.012-257.753 0.012-386.63 0.004-21.966 4.909-27.034 26.33-27.042 95.293-0.037 190.586-0.041 285.883 0 21.192 0.008 26.729 5.634 26.733 26.887 0.016 152.955-0.094 305.915 0.191 458.87 0.008 3.411-0.346 6.485-0.997 9.338 10.14-7.144 20.272-14.305 30.413-21.449 17.802-12.542 24.763-11.268 37.052 6.411 22.829 32.847 45.666 65.694 68.491 98.545 13.381 19.279 12.241 25.296-7.209 38.994z" horiz-adv-x="1197" />
<glyph unicode="&#xe634;" d="M517.215 146.848h-26.793c-13.848 0-24.982 11.302-24.982 25.112 0 5.265 2.027 10.141 5.738 13.679 15.533 15.144 28.474 35.38 37.922 57.124 1.857-1.338 4.057-2.373 6.257-2.373 14.975 0 32.535 33.050 32.535 55.613 0 22.609-2.027 40.814-17.044 40.814-1.681 0-3.538-0.346-5.565-0.861-0.992 61.181-16.525 137.545-109.891 137.545-97.423 0-108.683-76.195-109.891-137.203-1.338 0.173-2.673 0.519-4.015 0.519-15.014 0-17.040-18.206-17.040-40.814 0-22.563 17.517-55.613 32.531-55.613 1.857 0 3.538 0.519 5.222 1.554 9.449-21.57 22.263-41.464 37.58-56.305 3.707-3.711 5.738-8.587 5.738-13.679 0-13.806-11.302-25.112-25.109-25.112h-26.451c-57.166 0-103.334-46.164-103.334-103.115v-28.65c0-18.036 14.667-32.704 32.531-32.704h344.643c17.863 0 32.531 14.667 32.531 32.704v28.65c0.004 56.951-46.164 103.115-103.115 103.115zM861.116 430.183h-289.073c8.457-18.552 14.368-41.291 16.871-69.292 6.257-3.842 10.787-9.922 14.667-17.344h257.534c13.287 0 24.074 10.787 24.074 24.116v38.226c0.004 13.51-10.783 24.293-24.074 24.293zM861.116 272.271h-251.624c-6.945-25.801-23.774-52.767-47.029-60.016-0.688-1.338-1.508-2.373-2.2-3.711v-22.909h300.679c13.46 0 24.247 10.787 24.247 24.074v38.442c0.004 13.337-10.783 24.12-24.074 24.12zM861.116 114.49h-196.526c12.987-20.536 20.578-44.825 20.578-70.757v-15.833h175.775c13.46 0 24.247 10.787 24.247 24.074v38.268c0.004 13.333-10.783 24.247-24.074 24.247zM947.34 693.997h-244.563c-2.127 0-3.869 1.704-3.869 3.869v130.265c0.004 2.127-1.738 3.869-3.865 3.869h-275.386c-2.127 0-3.869-1.742-3.869-3.869v-130.269c0-2.165-1.742-3.869-3.869-3.869h-263.588c-81.921 0.004-148.332-66.407-148.332-148.521v-589.183c0-81.882 66.411-148.29 148.332-148.29h799.012c82.075 0 148.486 66.411 148.486 148.29v589.183c-0.004 82.113-66.415 148.524-148.49 148.524zM485.719 758.009c0 2.127 1.742 3.869 3.869 3.869h135.334c2.165 0 3.869-1.742 3.869-3.869v-134.83c0-2.127-1.704-3.869-3.869-3.869h-135.334c-2.127 0-3.869 1.742-3.869 3.869v134.83zM1025.704-43.71c0-43.164-35.042-78.36-78.168-78.36h-799.204c-43.126 0-78.206 35.196-78.206 78.36v589.183c0 43.318 35.080 78.402 78.206 78.402h263.438c2.127 0 3.869-1.742 3.869-3.869v-66.953c0-2.127 1.742-3.869 3.869-3.869h275.544c2.127 0 3.869 1.742 3.869 3.869v66.953c0 2.127 1.742 3.869 3.869 3.869h244.563c43.318 0 78.364-35.080 78.364-78.402v-589.183z" horiz-adv-x="1096" />
<glyph unicode="&#xe635;" d="M722.845 465.914c99.076 0 196.763 0 295.785 0 0.246-4.839 0.66-9.222 0.66-13.605 0.035-148.767 0.207-297.537-0.031-446.304-0.176-108.591-90.311-197.969-199.148-197.981-206.782-0.027-413.568-0.027-620.349 0-109.489 0.012-199.312 89.518-199.413 198.972-0.133 147.939-0.027 295.879-0.027 443.818 0 4.504 0 9.004 0 14.573 98.452 0 195.944 0 295.239 0-48.457-74.426-60.724-153.415-31.866-236.982 19.12-55.369 54.104-99.322 103.323-131.235 99.213-64.334 229.375-53.546 315.44 23.425 84.589 75.652 124.757 217.269 40.39 345.319zM126.068 579.216c0 23.226 0 45.148 0 67.070 0 51.38 0 102.761 0 154.141 0 18.386-0.004 18.402 18.519 23.631 3.107 0.874 6.264 1.546 10.873 2.673 0-82.938 0-164.745 0-247.461 14.296 0 27.32 0 41.69 0 0 83.895 0 167.344 0 251.754 9.71 0 18.125 0 27.788 0 0-83.649 0-167.176 0-251.684 14.23 0 27.257 0 41.658 0 0 83.66 0 167.094 0 252.651 6.479 0 11.634 0 16.794 0 179.002 0 358.007 0.023 537.009-0.008 106.679-0.020 196.131-86.564 198.719-193.259 1.124-46.357 0.187-92.762 0.187-140.879-4.761 0-8.75 0-12.735 0-100.275 0-200.549-0.109-300.824 0.281-5.846 0.023-13.074 2.576-17.313 6.49-103.697 95.849-255.899 95.318-359.849-1.432-2.966-2.763-7.724-5.105-11.65-5.117-103.174-0.273-206.349-0.215-309.527-0.172-1.975 0-3.95 0.496-7.095 0.913 0 15.24-0.078 30.063 0.016 44.882 0.226 35.625-1.499 71.402 1.253 106.827 4.566 58.835 32.705 105.805 79.359 141.738 0.855 0.66 2.123 0.781 4.477 1.592 0-71.757 0-142.768 0-214.634 13.773 0 26.399 0 40.652 0zM926.766 660.683c0 17.797 0.187 35.597-0.051 53.39-0.265 19.916-12.146 33.236-31.999 33.634-35.992 0.722-72.018 0.706-108.014 0.023-20.548-0.39-32.284-13.671-32.35-34.434-0.113-36.007-0.172-72.014 0.027-108.022 0.109-19.772 12.946-32.764 32.436-32.869 35.593-0.187 71.187-0.172 106.78-0.008 20.189 0.094 32.932 13.113 33.135 33.654 0.183 18.207 0.039 36.421 0.035 54.631zM509.553 114.615c-111.706-0.031-201.736 89.413-201.954 200.635-0.215 110.64 90.482 200.971 201.755 200.935 111.421-0.035 201.275-90.112 200.869-201.365-0.406-111.198-89.593-200.174-200.67-200.206zM657.824 314.977c0.020 82.474-65.715 148.423-147.967 148.443-81.713 0.023-147.99-65.84-148.045-147.124-0.055-82.478 65.641-149.028 147.354-149.27 81.947-0.242 148.642 66.137 148.657 147.951z" horiz-adv-x="1020" />
<glyph unicode="&#xe636;" d="M1214.774 762.879c0 10.311-1.528 21.386-5.728 30.551-12.602 28.641-37.043 38.57-66.83 38.57h-1064.312c-53.082 0-77.523-24.059-77.523-76.759v-451.769c0-141.297 0-282.594-0.382-423.892 0-20.24 4.964-38.188 19.476-52.7 15.657-15.275 34.751-18.712 55.755-18.712h739.328c109.601 0 219.584-0.382 329.184 0 43.917 0 71.412 26.35 71.412 69.121 0 295.197 0 590.393-0.382 885.59zM335.294 752.186c21.767 0 32.46-10.693 32.842-32.078 0-21.767-10.311-32.078-31.696-32.46-22.531 0-32.078 9.165-32.078 31.696s9.547 32.46 30.933 32.842zM224.166 752.186c21.767 0 31.315-9.929 31.315-32.46 0-22.913-8.783-32.078-31.315-32.078-21.767 0-32.078 10.311-32.078 32.078 0 21.386 10.693 32.078 32.078 32.46zM111.51 751.804c21.386 0.382 32.842-10.311 33.224-31.696s-10.693-32.078-32.078-32.46c-22.149 0-32.078 9.547-32.46 31.315s10.311 32.842 31.315 32.842zM1183.46-116.219c0-32.46-10.693-43.153-42.771-43.153h-1067.367c-30.169 0-41.244 11.075-41.244 41.625v724.817h1151.381v-723.289z" horiz-adv-x="1215" />
<glyph unicode="&#xe637;" d="M305.987 433.995l243.984 237.998c0 0 86.001 87.992 207.999 35.993 0 0 7.985 114.001 131.982 124.001 0 0 134.001-1.999 134.001-136 0 0 5.998-111.99-118-133.989 0 0 35.997-144.001-63.998-229.998l-93.986 94.001c0 0 67.984 58 3.998 129.999 0 0-61.999 53.998-129.999-10l-213.992-215.999-101.99 103.993zM626.627 526.333l237.726-244.265c0 0 87.885-86.099 35.756-208.042 0 0 113.985-8.111 123.843-132.128 0 0-2.141-133.997-136.142-133.855 0 0-112.014-5.871-133.855 118.142 0 0-144.040-35.827-229.919 64.27l94.092 93.883c0 0 57.929-68.071 129.999-4.145 0 0 54.057 61.943-9.842 130.015l-215.762 214.241 104.104 101.884zM718.31 205.341l-244.269-237.742c0 0-86.092-87.885-208.026-35.744 0 0-8.123-114.001-132.12-123.855 0 0-133.997 2.141-133.851 136.142 0 0-5.879 112.014 118.142 133.871 0 0-35.835 144.040 64.262 229.919l93.875-94.092c0 0-68.063-57.929-4.137-129.999 0 0 61.935-54.069 129.999 9.842l214.218 215.754 101.907-104.096zM396.527 113.299l-237.39 244.604c0 0-87.779 86.222-35.464 208.094 0 0-113.985 8.269-123.669 132.294 0 0 2.323 133.997 136.32 133.669 0 0 112.006 5.721 133.693-118.328 0 0 144.092 35.634 229.836-64.586l-94.227-93.749c0 0-57.822 68.15-129.979 4.314 0 0-54.164-61.864 9.664-130.026l215.462-214.526-104.246-101.761z" />
<glyph unicode="&#xe638;" d="M1127.786 192.964c-6.853-0.762-11.586 0.625-15.274 7.82-47.995 93.636-96.373 187.078-144.63 280.581-1.076 2.088-1.854 4.329-3.003 7.055 20.716 3.717 40.025 10.082 58.67 18.39 25.070 11.174 35.728 37.2 25.477 61.753-10.376 24.852-37.587 36.526-62.85 24.937-43.533-19.97-85.719-20.083-127.389 4.467-2.749 1.621-5.757 2.79-8.615 4.229-63.273 31.802-130.904 46.213-201.099 50.406-13.206 0.79-26.465 1.556-39.739 2.326 34.809 12.956 59.738 46.209 59.738 85.533-0.004 50.555-40.989 91.54-91.544 91.54s-91.54-40.985-91.54-91.54c0-39.219 24.784-72.412 59.448-85.445-10.485-0.681-20.982-1.391-31.431-1.874-79.914-3.709-155.966-21.801-226.866-59.444-38.377-20.382-76.544-19.217-115.376-1.467-26.364 12.049-53.812 2.33-65.14-22.175-11.299-24.433-0.548-51.083 25.799-63.837 18.12-8.776 37.304-14.21 58.198-17.85-2.467-4.829-4.604-9.034-6.764-13.222-46.233-89.641-92.616-179.201-138.487-269.028-4.97-9.735-10.364-15.314-21.692-13.174-10.852 2.048-18.463-2.673-23.679-11.956 0-2.407 0-4.813 0-7.22 18.547-65.43 67.377-99.215 127.804-118.597 81.232-26.061 161.775-22.538 239.878 13.25 29.178 13.371 54.276 32.455 73.073 58.96 9.594 13.529 16.504 28.291 19.543 44.722 2.29 12.372-4.063 22.063-16.129 20.43-17.342-2.342-23.909 6.305-30.955 20.152-44.278 86.997-89.524 173.501-134.443 260.171-7.599 14.661-7.55 14.327 8.453 16.512 33.878 4.636 66.196 15.012 97.953 27.351 32.423 12.593 64.668 25.691 99.795 29.206 15.633 1.564 15.593 2.008 15.593-14.065 0.004-185.603-0.048-371.202 0.161-556.8 0.008-8.699-0.617-12.694-11.384-13.952-34.132-3.995-61.866-32.882-65.232-67.139-0.863-8.764-4.366-9.179-11.078-9.098-21.647 0.254-43.291 0.089-64.938 0.089-45.693-0.004-77.535-31.185-78.579-76.959 205.343 0 410.687 0 616.030 0-1.048 42.509-34.539 75.677-78.188 76.802-22.038 0.568-44.105 0.322-66.151 0.048-6.543-0.085-9.401 0.794-10.215 8.736-3.628 35.47-32.104 64.055-67.304 67.925-6.998 0.766-9.381 2.104-9.368 9.598 0.218 188.844 0.238 377.688-0.036 566.532-0.012 9.038 3.757 9.501 10.711 8.905 30.246-2.584 58.682-11.831 86.714-22.804 40.251-15.762 80.611-31.169 124.224-35.103 11.658-1.052 4.604-7.385 2.568-11.336-32.455-62.959-65.079-125.825-97.659-188.715-15.093-29.133-30.351-58.182-45.101-87.484-3.16-6.281-6.942-9.106-13.887-8.207-3.551 0.46-7.212 0.198-10.816 0.052-12.408-0.504-18.737-8.449-16.29-20.736 6.788-34.092 27.049-59.347 53.715-79.962 36.724-28.391 79.224-43.275 124.599-49.68 64.805-9.143 127.868-2.673 187.59 25.771 32.419 15.439 59.992 36.825 79.055 68.010 7.143 11.686 10.477 24.852 15.359 37.421 0 2.407 0 4.813 0 7.22-5.809 11.477-15.903 13.234-27.279 11.973zM345.817 193.899c-76.907 0-152.326 0-229.599 0 38.296 71.799 75.887 142.28 114.771 215.192 38.723-72.573 76.415-143.207 114.828-215.192zM809.131 193.649c38.332 71.872 76.024 142.55 114.908 215.458 38.856-72.847 76.552-143.526 114.92-215.458-77.16 0-152.567 0-229.829 0z" horiz-adv-x="1155" />
<glyph unicode="&#xe639;" d="M1488.063 797.458c-37.98-4.249-75.87-9.694-113.957-12.451-121.355-8.787-240.837 8.417-360.213 27.209-87.94 13.846-176.432 22.155-265.568 19.183-70.419-2.35-139.782-12.091-204.713-41.188-84.699-37.954-155.36-95.037-214.444-165.96-91.196-109.462-142.807-233.853-135.179-378.65 1.529-28.979 6.695-67.919 11.222-100.508 54.895 48.446 114.622 90.407 175.241 118.941 158.675 74.679 325.145 127.556 493.348 175.509 3.208 0.912 11.131 2.618 14.495 2.977 0.563-1.287 20.696 4.587 21.259 3.299-345.348-128.414-636.681-303.306-909.555-549.771 32.702-18.127 29.848-66.53 61.321-85.005 9.227-5.418 13.738-3.181 20.471 3.423 33.093 32.471 65.693 65.57 100.471 96.174 34.676 30.513 71.734 58.322 108.641 88.036 8.068-8.465 13.556-14.216 19.033-19.972 43.779-45.99 95.67-80.333 154.352-103.722 83.058-33.104 169.624-45.292 258.524-35.432 166.631 18.475 308.242 84.147 413.632 219.401 90.992 116.774 161.604 245.376 222.153 379.568 41.634 92.269 78.648 186.635 117.058 280.336 10.573 25.792 18.738 52.572 28.678 80.799-6.974-0.944-11.609-1.668-16.27-2.194z" horiz-adv-x="1504" />
</font>
</defs>
</svg>
