<?xml version="1.0" standalone="no"?>
<!DOCTYPE svg PUBLIC "-//W3C//DTD SVG 1.1//EN" "http://www.w3.org/Graphics/SVG/1.1/DTD/svg11.dtd" >
<svg xmlns="http://www.w3.org/2000/svg">
<metadata>Generated by IcoMoon</metadata>
<defs>
<font id="sppagebuilder" horiz-adv-x="1024">
<font-face units-per-em="1024" ascent="870.4" descent="-153.6" />
<missing-glyph horiz-adv-x="1024" />
<glyph unicode="&#x20;" horiz-adv-x="0" d="" />
<glyph unicode="&#xe900;" glyph-name="12" d="M821.76 864h-821.76v-1024h1024v1024h-202.24zM984.986-120.576h-945.971v945.152h945.869v-945.152z" />
<glyph unicode="&#xe901;" glyph-name="2-10" d="M0-160h198.246v1024h-198.246v-1024zM39.629 824.576h118.886v-945.254h-118.886v945.254zM910.541 864h-662.426v-1024h775.885v1024h-113.459zM287.744-120.576v945.152h696.525v-945.152h-696.525z" />
<glyph unicode="&#xe902;" glyph-name="2-5-5" d="M657.101 864v-1024h366.899v1024h-366.899zM696.73-120.576v945.152h287.539v-945.152h-287.539zM248.115-160h366.899v1024h-366.899v-1024zM287.744 824.576h287.539v-945.254h-287.539v945.254zM0-160h198.246v1024h-198.246v-1024zM39.629 824.576h118.886v-945.254h-118.886v945.254z" />
<glyph unicode="&#xe903;" glyph-name="3-3-3-3" d="M0 864v-1024h220.16v1024h-220.16zM180.224-120.678h-140.288v945.254h140.288v-945.254zM267.878 864v-1024h220.262v1024h-220.262zM448.205-120.678h-140.39v945.254h140.39v-945.254zM613.069 864h-77.21v-1024h220.16v1024h-142.95zM716.186-120.678h-140.39v945.254h140.39v-945.254zM948.019 864h-144.179v-1024h220.16v1024h-75.981zM984.064-120.576h-140.288v945.152h140.288v-945.152z" />
<glyph unicode="&#xe904;" glyph-name="3-6-3" d="M0 864v-1024h220.16v1024h-220.16zM180.224-120.678h-140.288v945.254h140.288v-945.254zM671.846 864h-403.866v-1024h488.141v1024h-84.275zM716.186-120.678h-408.371v945.254h408.371v-945.254zM948.019 864h-144.179v-1024h220.16v1024h-75.981zM984.064-120.576h-140.288v945.152h140.288v-945.152z" />
<glyph unicode="&#xe905;" glyph-name="3-9" d="M0 864v-1024h220.16v1024h-220.16zM180.224-120.678h-140.288v945.254h140.288v-945.254zM895.795 864h-627.814v-1024h756.019v1024h-128.205zM984.064-120.576h-676.25v945.152h676.25v-945.152z" />
<glyph unicode="&#xe906;" glyph-name="4-4-4" d="M789.402 864h-76.39v-1024h310.989v1024h-234.598zM984.986-120.576h-232.858v945.152h232.858v-945.152zM410.317 864h-53.862v-1024h310.989v1024h-257.126zM628.429-120.678h-232.755v945.254h232.755v-945.254zM0 864v-1024h310.989v1024h-310.989zM271.974-120.678h-232.96v945.254h232.96v-945.254z" />
<glyph unicode="&#xe907;" glyph-name="6-6-12" d="M485.99 460.851v403.149h-484.966v-486.502h484.966v83.354zM446.259 416.922h-405.606v407.654h405.606v-407.654zM539.034 864v-486.502h484.966v486.502h-484.966zM984.371 416.922h-405.606v407.654h405.606v-407.654zM0 294.963v-454.861h1024v485.888h-1024v-31.027zM39.424-114.534v400.794h945.254v-406.528h-945.254v5.734z" />
<glyph unicode="&#xe908;" glyph-name="6-6" d="M0 864v-1024h488.448v1024h-488.448zM448.614-120.678h-408.678v945.254h408.678v-945.254zM977.715 864h-442.266v-1024h488.55v1024h-46.285zM984.064-120.576h-408.678v945.152h408.678v-945.152z" />
<glyph unicode="&#xe909;" glyph-name="8-4" d="M789.402 864h-76.39v-1024h310.989v1024h-234.598zM984.986-120.576h-232.858v945.152h232.858v-945.152zM422.502 864h-422.502v-1024h667.443v1024h-244.941zM628.429 824.576v-945.254h-589.414v945.254h589.414z" />
<glyph unicode="&#xe90a;" glyph-name="add-columns" d="M0 864h143.053v-1024h-143.053v1024zM296.448-160h143.053v1024h-143.053v-1024zM735.949 864h-143.053v-270.029h143.053v270.029zM1024 864h-143.053v-414.72h143.053v414.72zM1024 132.147h-185.754v189.952h-102.298v-189.952h-194.048v-102.298h194.048v-189.85h102.298v189.85h185.754v102.298z" />
<glyph unicode="&#xe90b;" glyph-name="add-new-row" d="M790.938 382.618h233.062v-74.957h-233.062v-232.96h-73.216v232.96h-236.032v74.957h236.032v246.682h73.216v-246.682zM0 864v-81.92h1024v81.92h-1024zM613.99 625.203h-613.99v-81.92h613.99v81.92zM0-160h613.99v81.92h-613.99v-81.92zM407.142 386.406h-407.142v-81.92h407.142v81.92zM282.522 159.181h-282.522v-81.92h282.522v81.92z" />
<glyph unicode="&#xe90c;" glyph-name="addon" d="M1024 594.074v-82.022h-262.246v-254.976h-82.33v254.976h-265.626v82.022h265.626v269.926h82.33v-269.926h262.246zM942.080-78.49h-860.16v860.979h322.56v81.51h-404.48v-1024h1024v426.394h-81.92v-344.883z" />
<glyph unicode="&#xe90d;" glyph-name="addons" d="M903.373 621.824c-24.883 45.056-56.525 84.378-95.027 118.374-11.162 9.83-28.058 7.68-37.069-4.198-15.053-19.763-29.901-39.117-44.646-58.368-9.011-11.878-6.861-28.979 3.891-39.117 137.011-129.126 128.102-334.541 11.469-454.758-49.971-51.507-113.869-82.534-180.429-93.286v305.152c0.819 0.819 1.434 1.946 2.355 2.15 13.926 3.891 27.238 9.216 39.117 17.408 28.979 20.070 45.466 47.002 45.261 83.149-0.205 38.093 0 76.186 0 114.278v6.042h-38.298v6.144c0 32.666 0.102 65.434-0.205 98.099 0 4.506-1.331 9.523-3.686 13.312-5.53 8.909-17.92 12.186-28.672 8.704-10.752-3.379-16.179-10.957-16.282-22.733v-103.424h-96.87v4.198c0 33.485-0.102 66.97 0.102 100.454 0.102 9.728-4.403 16.282-12.8 20.275-16.486 7.782-36.659-3.072-35.942-22.118 1.331-32.461 0.307-65.126 0.307-97.69v-5.53h-40.653v-123.597c0-16.282 4.096-31.539 12.595-45.466 16.691-27.546 41.779-43.622 72.499-51.405 0.717-0.205 1.126-0.614 1.741-0.819v-307.507c-60.006 9.011-117.555 35.021-164.352 78.438-68.198 63.386-105.062 141.517-105.779 234.189-0.717 94.003 34.304 172.544 101.376 235.725 10.854 10.24 12.902 27.443 3.891 39.219-14.95 19.558-29.901 39.014-44.749 58.47-9.011 11.776-26.010 14.131-37.171 4.198-132.813-116.838-188.826-308.531-124.928-485.274 68.198-188.621 263.066-323.277 484.352-292.454 192.819 26.931 358.093 183.91 382.157 392.704 10.957 94.618-7.475 183.808-53.555 267.059z" />
<glyph unicode="&#xe90e;" glyph-name="blind" d="M565.146 428.083l-94.31-113.869c12.288-9.114 27.546-14.541 44.032-14.541 40.96 0 74.035 33.178 74.035 74.035 0.102 21.504-9.114 40.858-23.757 54.374zM128.307 355.584c41.779 63.386 98.099 114.688 163.021 150.528-23.757-39.834-37.786-86.221-37.786-135.885 0-40.653 9.216-79.155 25.702-113.562l67.891 82.022c-1.843 10.24-2.867 20.787-2.867 31.642 0 96.461 78.131 175.002 174.49 175.616l84.378 101.888c-28.979 4.71-58.368 7.168-88.166 7.168-196.813 0-380.416-105.984-479.13-276.685l-13.107-22.733 13.107-22.733c40.858-70.554 96.256-130.15 161.075-175.616l58.163 70.144c-49.766 33.69-92.979 76.902-126.771 128.205zM994.202 378.317c-63.078 108.851-160.563 191.386-274.125 236.851l-89.805-108.442c39.731-32.256 65.229-81.408 65.229-136.499 0-96.87-78.848-175.616-175.616-175.616-43.213 0-82.944 15.77-113.562 41.779l-111.206-134.349c68.403-29.798 143.155-45.875 219.853-45.875 196.813 0 380.416 105.984 479.13 276.685l13.107 22.733-13.005 22.733zM720.282 195.43c40.858 46.899 65.946 107.827 65.946 174.797 0 45.978-11.674 89.293-32.358 127.078 58.47-35.328 109.363-83.354 147.763-141.722-45.67-69.325-108.749-124.109-181.35-160.154zM775.475 707.635c-2.253 1.843-4.71 3.482-7.168 4.71-5.222 2.662-10.752 4.198-16.384 4.506-12.493 0.717-25.19-4.301-33.69-14.643l-500.941-604.672c-6.758-8.192-9.83-18.432-9.216-28.365 0.307-5.734 1.843-11.264 4.506-16.486 2.458-4.71 5.837-9.011 10.138-12.595 17.203-14.234 43.008-11.878 57.344 5.427l500.838 604.774c14.234 17.306 11.776 43.11-5.427 57.344z" />
<glyph unicode="&#xe90f;" glyph-name="check-box" d="M287.027 521.472l-84.070-83.661 290.406-288.768 530.637 527.872-84.070 83.661-446.566-444.211zM942.080-78.49h-860.16v860.979h657.306v81.51h-739.226v-1024h1024v426.394h-81.92z" />
<glyph unicode="&#xe910;" glyph-name="close" d="M568.525 351.488l225.997-225.997-56.525-56.525-225.997 225.997-225.997-225.894-56.525 56.525 225.997 225.997-225.894 225.894 56.525 56.525 225.894-225.997 225.997 225.997 56.525-56.525-225.997-225.997z" />
<glyph unicode="&#xe911;" glyph-name="column" d="M0-160h282.419v1024h-282.419v-1024zM83.968 779.725h110.797v-856.781h-110.797v856.781zM370.79-160h282.419v1024h-282.419v-1024zM454.758 779.725h110.797v-856.781h-110.797v856.781zM741.581 864v-1024h282.419v1024h-282.419zM936.243-77.056h-110.797v856.781h110.797v-856.781z" />
<glyph unicode="&#xe912;" glyph-name="copy" d="M779.264 864h-470.528v-210.125h-308.736v-813.978h715.264v210.022h308.736v580.096l-244.736 233.984zM798.618 756.275l112.64-107.622h-112.64v107.622zM650.854-0.256v-95.13h-586.445v684.646h244.326v-539.238h342.118v-50.278zM959.59 209.766v-95.13h-586.445v684.749h361.062v-215.347h225.382v-374.272z" />
<glyph unicode="&#xe913;" glyph-name="drag-up-down" d="M967.066 152.934h56.934v-113.766h-56.934v113.766zM967.066 209.766h56.934v113.766h-56.934v-113.766zM56.934-17.766h-56.934v-142.234h142.234v56.934h-85.299v85.299zM967.066 380.467h56.934v113.766h-56.934v-113.766zM967.066 664.934v-113.766h56.934v113.766h-56.934zM967.066-103.066h-85.299v-56.934h142.234v142.234h-56.934v-85.299zM56.934 152.934h-56.934v-113.766h56.934v113.766zM56.934 664.934h-56.934v-113.766h56.934v113.766zM56.934 494.234h-56.934v-113.766h56.934v113.766zM0 721.766h56.934v85.299h85.299v56.934h-142.234v-142.234zM56.934 323.533h-56.934v-113.766h56.934v113.766zM967.066 721.766h56.934v142.234h-142.234v-56.934h85.299v-85.299zM552.96 167.27v-149.197h133.222l-174.182-173.261-174.182 173.261h133.222v149.299c-84.173 20.275-152.064 99.84-151.757 187.494 0 87.859 67.482 166.707 151.757 186.573v149.094h-133.222l174.182 173.261 174.182-173.261h-133.222v-149.094c84.48-19.866 151.552-98.918 151.859-187.699 0.205-86.221-68.301-166.195-151.859-186.47zM640 354.048c0.102 74.547-53.043 127.795-127.693 128.102-74.035 0.307-128.512-53.146-128.614-126.054 0-75.878 52.429-128.717 127.693-128.922 75.162-0.102 128.512 52.531 128.614 126.874z" />
<glyph unicode="&#xe914;" glyph-name="drag" d="M1024 352l-174.080 174.080v-133.12h-149.914c-11.981 50.79-45.568 95.437-89.6 122.88-17.715 11.059-37.069 19.354-57.446 24.166v149.914h133.12l-174.080 174.080-174.080-174.080h133.12v-149.914c-71.168-16.794-130.253-75.878-146.944-147.046h-150.016v133.12l-174.080-174.080 174.080-174.080v133.12h150.016c1.741-7.168 3.994-14.336 6.554-21.299l0.614-1.741v-0.102c23.040-60.211 76.8-108.646 139.674-123.802v-150.016h-133.018l174.080-174.080 174.080 174.080h-133.12v150.016c6.963 1.741 13.824 3.789 20.582 6.349 61.952 22.426 111.309 76.493 126.464 140.595h149.914v-133.12l174.080 174.080zM511.386 224.307c-24.576 0-46.694 5.734-65.434 16.077-38.093 21.299-61.747 61.85-61.747 112.23 0.102 75.264 53.248 127.693 129.536 127.693 10.24 0 20.070-1.126 29.389-3.072l1.536-0.307c0.307-0.102 0.717-0.205 1.024-0.205 56.525-13.722 94.31-61.645 94.208-124.723 0-74.854-53.248-127.795-128.512-127.693z" />
<glyph unicode="&#xe915;" glyph-name="duplicate" d="M806.093 656.947v207.053h-806.093v-816.845h217.907v-207.155h806.093v816.947h-217.907zM64.512 111.974v687.002h677.171v-686.899h-677.171zM959.488-94.976h-677.069v142.029h523.674v544.973h153.395v-687.002z" />
<glyph unicode="&#xe916;" glyph-name="edit" d="M1023.078 268.646v-426.394h-1024v1024h404.48v-81.51h-322.56v-861.082h860.262v344.986h81.818zM212.787 247.040l477.696 475.648 187.699-186.778-477.594-475.546h-187.802v186.675zM278.016 125.184h95.744l410.624 407.552-96.666 96.154-409.702-408.474v-95.232zM891.187 548.813l-187.802 186.778 115.61 114.381c10.547 10.547 25.293 16.384 40.448 16.282 14.848-0.205 28.467-6.042 38.4-16.384l108.749-108.134c10.445-9.83 16.179-23.45 16.384-38.195 0.205-15.053-5.734-29.798-16.384-40.243l-115.405-114.483zM797.696 737.434l95.846-95.334 58.573 58.266-95.846 95.334-58.573-58.266z" />
<glyph unicode="&#xe917;" glyph-name="export" d="M876.134 252.877c5.53-5.427 8.192-11.981 8.192-19.763s-2.765-14.438-8.192-19.866l-343.757-333.312c-5.427-5.427-11.981-8.192-19.763-8.192s-14.746 2.765-20.992 8.192l-342.63 333.21c-5.427 5.53-8.192 12.186-8.192 19.866s2.765 14.336 8.192 19.763l68.813 66.458c5.427 5.427 11.981 8.192 19.763 8.192s14.746-2.765 20.992-8.192l161.894-158.413v424.141c0 7.68 2.765 14.336 8.192 19.763s12.493 8.192 20.992 8.192h114.278c7.782 0 14.541-2.765 20.378-8.192s8.704-11.981 8.704-19.763v-435.814l173.67 170.086c6.246 5.427 13.21 8.192 20.992 8.192s14.336-2.765 19.763-8.192l68.71-66.355zM1001.472 806.349c-13.619 13.926-30.106 20.992-49.562 20.992h-878.592c-19.456 0-35.942-6.963-49.562-20.992s-20.378-30.72-20.378-50.074v-311.091h141.005v239.923h736.461v-240.026h141.005v311.194c0 19.456-6.758 36.147-20.378 50.074z" />
<glyph unicode="&#xe918;" glyph-name="eye" d="M514.97 447.744c-40.858 0-74.035-33.178-74.035-74.035s33.178-74.035 74.035-74.035c40.96 0 74.035 33.178 74.035 74.035s-33.178 74.035-74.035 74.035zM994.202 378.317c-98.816 170.598-282.419 276.685-479.232 276.685s-380.416-105.984-479.13-276.685l-13.107-22.733 13.107-22.733c98.816-170.701 282.317-276.685 479.13-276.685s380.416 105.984 479.13 276.685l13.107 22.733-13.005 22.733zM128.307 355.584c41.779 63.386 98.099 114.688 163.021 150.528-23.757-39.834-37.786-86.221-37.786-135.885 0-70.963 28.058-135.27 73.318-182.989-79.77 35.738-149.299 93.594-198.554 168.346zM519.885 194.611c-96.87 0-175.616 78.746-175.616 175.616 0 96.768 78.746 175.616 175.616 175.616s175.616-78.848 175.616-175.616c0-96.87-78.746-175.616-175.616-175.616zM720.282 195.43c40.858 46.899 65.946 107.827 65.946 174.797 0 45.978-11.674 89.293-32.358 127.078 58.47-35.328 109.363-83.354 147.763-141.722-45.67-69.325-108.749-124.109-181.35-160.154z" />
<glyph unicode="&#xe919;" glyph-name="gear" d="M512 526.797c-96.563 0-174.797-78.336-174.797-174.797s78.234-174.797 174.797-174.797c96.461 0 174.797 78.234 174.797 174.797 0 96.461-78.336 174.797-174.797 174.797zM512 254.31c-53.862 0-97.587 43.725-97.587 97.587s43.725 97.587 97.587 97.587c53.76 0 97.485-43.827 97.485-97.587s-43.725-97.587-97.485-97.587zM976.486 478.566l-72.806 26.010c-2.15 5.53-4.506 11.162-6.861 16.589l33.178 69.939 21.606 45.466-35.635 35.738-119.603 119.501-45.466-21.606-69.734-33.28c-5.53 2.458-11.059 4.813-16.691 6.963l-25.907 72.806-16.896 47.309h-219.341l-16.896-47.411-25.907-72.806c-5.632-2.15-11.162-4.506-16.691-6.963l-115.2 54.886-155.136-155.238 21.606-45.466 33.178-69.939c-2.458-5.53-4.71-11.059-6.861-16.589l-72.806-25.907-47.616-16.794v-219.648l47.514-16.794 72.806-25.907c2.15-5.53 4.403-11.162 6.861-16.589l-33.178-69.837-21.606-45.568 155.136-155.034 115.2 54.784c5.53-2.355 11.059-4.71 16.691-6.861l25.907-72.909 16.896-47.411h219.341l16.896 47.411 25.907 72.909c5.632 2.15 11.162 4.506 16.691 6.861l115.2-54.784 35.635 35.533 119.603 119.501-21.606 45.568-33.178 69.837c2.458 5.53 4.71 11.059 6.861 16.589l120.32 42.701v219.648l-47.411 16.794zM952.525 292.71l-105.37-37.478c-7.27-25.19-17.306-49.254-29.696-71.782l48.026-100.966-83.866-83.968-101.069 48.026c-22.528-12.493-46.592-22.528-71.68-29.798l-37.478-105.37h-118.682l-37.478 105.37c-24.971 7.203-49.052 17.198-71.782 29.798l-101.069-48.026-83.866 83.968 48.128 100.966c-12.493 22.528-22.528 46.592-29.798 71.782l-105.37 37.478v118.784l105.37 37.376c7.27 25.293 17.306 49.254 29.798 71.885l-48.128 100.966 83.866 83.866 101.069-48.026c22.528 12.493 46.592 22.528 71.782 29.798l37.478 105.37h118.682l37.478-105.37c25.088-7.27 49.254-17.306 71.68-29.798l101.069 48.026 83.866-83.866-48.026-100.966c12.493-22.63 22.528-46.592 29.696-71.885l105.37-37.376v-118.784z" />
<glyph unicode="&#xe91a;" glyph-name="graph" d="M664.781 536.115l64.614 106.803-80.282 47.821 218.522 120.115-4.198-247.603-80.282 47.821-88.576-146.227-255.898 63.283-237.978-235.827-44.237 43.93 263.066 260.71 245.248-60.826zM366.49 3.84h125.235v447.181l-33.792 8.397-91.443-90.624v-364.954zM178.586 226.458v-222.618h125.235v302.899l-103.117-102.298-22.118 22.016zM742.298 422.861v-419.021h125.235v484.557l-62.976 37.376-62.259-102.912zM679.629 3.84v400.691l-125.235 31.027v-431.718h125.235zM942.080 266.701v-343.654h-860.16v857.907h322.56v81.203h-404.48v-1020.314h1024v424.858h-81.92z" />
<glyph unicode="&#xe91b;" glyph-name="hamburger" d="M788.787 568.269h-553.574v75.776h553.574v-75.776zM788.787 474.675h-553.574v-75.776h553.574v75.776zM788.787 305.203h-553.574v-75.776h553.574v75.776zM788.787 135.731h-553.574v-75.776h553.574v75.776zM1024 864v-1024h-1024v1024h1024zM948.122 788.122h-872.243v-872.346h872.346v872.346z" />
<glyph unicode="&#xe91c;" glyph-name="import" d="M148.992 446.31c-5.53 5.427-8.192 11.981-8.192 19.763s2.765 14.438 8.192 19.866l343.859 333.21c5.427 5.427 11.981 8.192 19.763 8.192s14.746-2.765 20.992-8.192l342.63-333.21c5.427-5.53 8.192-12.186 8.192-19.866s-2.765-14.336-8.192-19.763l-68.813-66.458c-5.427-5.427-11.981-8.192-19.763-8.192s-14.746 2.765-20.992 8.192l-161.997 158.515v-424.243c0-7.68-2.765-14.336-8.192-19.763s-12.493-8.192-20.992-8.192h-114.176c-7.782 0-14.541 2.765-20.378 8.192s-8.704 11.981-8.704 19.763v435.814l-173.67-170.086c-6.246-5.427-13.21-8.192-20.992-8.192s-14.336 2.765-19.763 8.192l-68.813 66.458zM880.845 254.003v-240.026h-736.461v240.026h-141.005v-311.091c0-19.456 6.758-36.147 20.378-50.074s30.106-21.094 49.562-21.094h878.694c19.456 0 35.942 6.963 49.562 20.992s20.378 30.72 20.378 50.074v311.194h-141.107z" />
<glyph unicode="&#xe91d;" glyph-name="layout" d="M64 712.243h266.445v-205.107h-266.445v205.107zM378.778 712.243h266.445v-205.107h-266.445v205.107zM693.555 712.243h266.445v-205.107h-266.445v205.107zM64 454.707h896v-205.107h-896v205.107zM64 197.069h407.757v-205.107h-407.757v205.107zM552.243 197.069h407.757v-205.107h-407.757v205.107z" />
<glyph unicode="&#xe91e;" glyph-name="minus-circle" d="M512.205 800c-247.603 0-448.205-200.602-448.205-447.795 0-247.603 200.602-448.205 448.205-448.205 247.194 0 447.795 200.602 447.795 448.205 0 247.194-200.602 447.795-447.795 447.795zM821.043 322.304c-0.717-9.216-2.253-19.558-4.813-31.027h-608.154c-2.56 11.469-4.403 22.221-5.222 32.154-0.717 9.933-1.126 20.275-1.126 31.027 0 9.216 0.41 18.432 1.126 27.341 0.717 9.216 2.56 19.558 5.222 31.027h608.154c2.56-11.469 4.096-22.118 4.813-32.154 1.126-9.933 1.434-20.275 1.434-31.027 0.102-9.318-0.307-18.125-1.434-27.341z" />
<glyph unicode="&#xe91f;" glyph-name="minus-square" d="M886.067 800h-748.134c-41.062 0-73.933-33.28-73.933-73.933v-748.237c0-40.653 32.87-73.933 73.933-73.933h748.237c40.653 0 73.933 33.28 73.933 73.933v748.237c-0.102 40.653-33.382 73.933-74.035 73.933zM821.043 322.304c-0.717-9.216-2.253-19.558-4.813-31.027h-608.154c-2.56 11.469-4.403 22.118-5.222 32.154-0.717 9.933-1.126 20.275-1.126 31.027 0 9.216 0.41 18.432 1.126 27.341 0.717 9.216 2.56 19.558 5.222 31.027h608.154c2.56-11.469 4.096-22.118 4.813-32.154 1.126-9.933 1.434-20.275 1.434-31.027 0.102-9.318-0.307-18.125-1.434-27.341z" />
<glyph unicode="&#xe920;" glyph-name="minus" d="M813.056 412.211c2.458-11.469 4.096-22.118 4.915-31.949s1.229-20.070 1.229-30.72c0-9.011-0.41-18.022-1.229-27.034s-2.458-19.251-4.915-30.72h-602.112c-2.458 11.469-4.096 22.118-4.915 31.949s-1.229 20.173-1.229 30.72c0 9.011 0.41 18.022 1.229 27.034s2.458 19.251 4.915 30.72h602.112z" />
<glyph unicode="&#xe921;" glyph-name="pagebuilder" d="M307.61 463.821v9.318c-0.205 3.277 0.41 6.246 3.584 7.782 5.837 2.765 11.366-4.198 16.486-7.782 50.381-35.84 100.659-71.885 151.142-107.622 6.861-4.915 6.963-7.782 0.922-13.517-37.581-35.226-96.358-79.565-172.544-80.384l0.41 192.205zM904.602 299.366c-19.354 15.667-32.461 15.155-48.333-4.608-37.376-46.592-80.486-87.654-125.645-126.976-149.299-130.355-324.301-202.957-518.042-234.906-25.498-4.198-35.328 2.97-34.714 30.003 0.922 39.834 0.717 79.667 0.717 119.501v0l1.331 561.869 0.102 27.034c-0.512 9.523 1.126 17.92 10.445 22.426 16.794 7.987 32.973-12.186 47.514-22.63 145.715-103.526 290.918-207.974 436.838-311.194 19.866-14.029 20.070-22.63 2.662-39.014-110.080-103.117-236.646-176.742-382.362-216.781-52.429-14.438-51.712-14.336-50.688-66.867 0.41-20.378 6.144-27.853 27.546-23.45 42.394 8.806 83.763 21.197 124.211 36.25 157.286 58.675 290.714 151.859 401.306 278.323 24.986 28.57 26.214 27.75-4.915 49.971l-674.099 478.106c-4.915 3.379-11.776 8.602-16.077 7.373-8.397-2.458-5.734-12.083-5.837-18.842-0.512-39.117-0.717-78.234-0.922-117.35 0-10.342-0.102-19.354-0.307-27.341l-1.229-136.704-1.024-113.050-0.512-53.146-0.41-83.456-0.512-58.47-0.614-65.741-1.638-185.549-0.102-31.13c-0.205-36.045 0.102-72.090-0.717-108.032-0.41-18.534 3.072-26.214 25.6-24.781 88.678 5.53 175.718 18.432 261.12 43.52 212.992 62.566 391.578 178.381 536.781 345.805 33.178 38.298 31.334 38.4-7.475 69.837z" />
<glyph unicode="&#xe922;" glyph-name="paste" d="M863.846 755.968v34.406h-87.142v73.626h-208.077v-73.626h-90.317v-34.406h-160.154v-156.57h-318.157v-759.398h671.13v158.515h352.87v757.453h-160.154zM610.714 56.269v-155.955h-550.298v638.771h338.944v-200.909h211.456v-281.907zM459.674 398.49v100.454l105.677-100.454h-105.677zM966.144 56.269h-295.014v324.915l-229.581 218.112h-65.434v98.918h102.298v-26.624h385.536v26.624h102.298v-641.946z" />
<glyph unicode="&#xe923;" glyph-name="pencil" d="M0 77.261v-237.261h237.261l603.75 604.365-237.261 237.261-603.75-604.365zM203.469-77.67h-121.139v121.139l517.837 518.963 122.266-122.266-518.963-517.837zM1003.213 705.792l-137.421 137.421c-12.493 13.107-29.696 20.48-48.538 20.787-19.149 0.205-37.786-7.27-51.2-20.582l-146.022-145.408 237.261-237.261 146.022 145.408c13.414 13.414 20.89 32.051 20.685 51.2-0.205 18.637-7.578 35.84-20.787 48.435zM860.262 579.226l-121.037 121.037 74.035 74.035 121.037-121.037-74.035-74.035z" />
<glyph unicode="&#xe924;" glyph-name="plus-circle" d="M512.205 800c-247.603 0-448.205-200.602-448.205-447.795 0-247.603 200.602-448.205 448.205-448.205 247.194 0 447.795 200.602 447.795 448.205 0 247.194-200.602 447.795-447.795 447.795zM821.043 322.304c-0.717-9.216-2.253-19.558-4.813-31.027h-243.405v-243.507c-11.469-2.56-22.118-4.403-32.154-5.222-9.933-0.717-20.275-1.126-31.027-1.126-9.216 0-18.125 0.41-27.341 1.126s-19.558 2.56-31.027 5.222v243.405h-243.2c-2.56 11.469-4.403 22.221-5.222 32.154-0.717 9.933-1.126 20.275-1.126 31.027 0 9.216 0.41 18.125 1.126 27.341s2.56 19.558 5.222 31.027h243.098v243.2c11.469 2.56 22.118 4.096 32.154 4.813 9.933 1.126 20.275 1.434 31.027 1.434 9.216 0 18.432-0.41 27.341-1.434 9.216-0.717 19.558-2.253 31.027-4.813v-243.098h243.507c2.56-11.469 4.096-22.118 4.813-32.154 1.126-9.933 1.434-20.275 1.434-31.027 0.102-9.318-0.307-18.534-1.434-27.341z" />
<glyph unicode="&#xe925;" glyph-name="plus-square" d="M886.067 800h-748.134c-41.062 0-73.933-33.28-73.933-73.933v-748.237c0-40.653 32.87-73.933 73.933-73.933h748.237c40.653 0 73.933 33.28 73.933 73.933v748.237c-0.102 40.653-33.382 73.933-74.035 73.933zM821.043 322.304c-0.717-9.216-2.253-19.558-4.813-31.027h-243.405v-243.507c-11.469-2.56-22.221-4.403-32.154-5.222-9.933-0.717-20.275-1.126-31.027-1.126-9.216 0-18.125 0.41-27.341 1.126s-19.558 2.56-31.027 5.222v243.405h-243.2c-2.56 11.469-4.403 22.221-5.222 32.154-0.717 9.933-1.126 20.275-1.126 31.027 0 9.216 0.41 18.125 1.126 27.341s2.56 19.558 5.222 31.027h243.098v243.2c11.469 2.56 22.118 4.096 32.154 4.813 9.933 1.126 20.275 1.434 31.027 1.434 9.216 0 18.432-0.41 27.341-1.434 9.216-0.717 19.558-2.253 31.027-4.813v-243.098h243.507c2.56-11.469 4.096-22.118 4.813-32.154 1.126-9.933 1.434-20.275 1.434-31.027 0.102-9.318-0.307-18.534-1.434-27.341z" />
<glyph unicode="&#xe926;" glyph-name="plus" d="M957.85 393.37c-1.024 14.438-3.174 29.901-6.963 46.387h-351.232v351.232c-16.486 3.686-31.437 5.837-44.851 6.963-12.8 1.638-26.112 2.15-39.424 2.15-15.462 0-30.413-0.512-44.749-2.15-14.438-1.024-29.901-3.174-46.387-6.963v-351.232h-351.232c-3.686-16.486-6.451-31.437-7.475-44.749s-1.638-26.112-1.638-39.424c0-15.462 0.512-30.413 1.638-44.749 1.024-14.438 3.686-29.901 7.475-46.387h351.232v-351.232c16.486-3.686 31.437-6.451 44.749-7.475s26.112-1.638 39.424-1.638c15.462 0 30.413 0.512 44.749 1.638 14.438 1.024 29.901 3.686 46.387 7.475v351.232h351.232c3.686 16.486 5.837 31.437 6.963 44.851 1.638 12.8 2.15 26.112 2.15 39.424 0.102 15.258-0.41 30.208-2.048 44.646z" />
<glyph unicode="&#xe927;" glyph-name="publish" d="M-1.126 865.741v-1024h1024v1024h-1024zM74.65-82.483v872.346h505.242v-282.010l141.312 141.312 141.312-141.312v282.010h84.378v-872.346h-872.243zM244.326 197.069h533.094v-81.92h-533.094v81.92zM244.326 394.701h533.094v-81.92h-533.094v81.92zM496.845 507.75h-252.518v81.92h252.518v-81.92z" />
<glyph unicode="&#xe928;" glyph-name="redo" d="M926.413 545.434c0-3.072-2.355-6.554-7.066-10.65l-147.661-147.661c-73.523-72.806-117.35-116.326-131.482-130.458-12.8-12.083-27.546-19.149-44.032-21.197s-32.154 1.024-47.002 9.114-25.805 19.763-32.87 34.918c-7.066 15.155-8.909 31.539-5.53 49.050 2.048 14.848 10.138 29.389 24.269 43.52l97.075 95.027-11.162 1.024h-153.702c-27.648-0.614-53.862-8.090-78.848-22.221-39.731-22.938-69.632-56.32-89.498-100.147s-26.931-90.010-21.197-138.547c5.734-48.538 24.576-90.931 56.627-126.976s71.373-59.802 117.862-71.27c18.842-3.994 37.376-6.451 55.603-7.066 22.938-0.614 41.779-8.397 56.627-23.245 14.746-14.746 22.221-33.178 22.221-55.091s-7.578-40.243-22.733-55.091c-15.155-14.746-34.202-22.221-57.139-22.221-102.502 1.331-189.747 36.045-261.939 104.141-47.923 45.158-82.33 98.099-103.219 158.822-20.89 60.006-27.034 121.754-18.227 185.139 8.090 64.102 31.027 123.085 68.813 177.050 64.102 91.034 147.354 141.312 249.856 150.733 21.606 2.048 49.254 3.072 82.944 3.072 47.923-0.717 75.469-0.717 82.944 0 8.499 0 12.698-0.205 12.595-0.512 3.072 0.819 5.837 1.946 8.499 3.482-6.144 5.837-22.528 21.709-49.357 47.616-18.842 18.842-34.714 35.021-47.514 48.538-16.179 16.179-24.064 35.021-23.757 56.627 0.307 21.504 8.602 39.936 24.781 55.091s34.509 22.323 55.091 21.709c20.582-0.717 39.219-9.421 56.115-26.317l275.046-275.149c4.71-3.994 6.963-7.782 6.963-10.854z" />
<glyph unicode="&#xe929;" glyph-name="save" d="M972.8 864h-806.093l-15.462-11.469-132.403-118.989-18.842-14.643v-878.797h1024v1023.898h-51.2zM280.269 777.779h64.717v-172.442h-64.717v172.442zM786.842-106.138h-538.931v334.131h538.931v-334.131zM970.138-106.138h-129.331v388.096h-646.758v-387.994h-140.186v801.178l133.837 114.995h6.349v-280.269h646.758v280.269h129.331v-916.275z" />
<glyph unicode="&#xe92a;" glyph-name="settings" d="M566.784 489.523c14.131 20.685 20.173 44.954 17.306 68.71l267.571 267.366 149.504-149.709-267.366-267.366c-23.347 2.662-47.309-3.174-67.584-16.794l-99.43 97.792zM369.562 235.878l-169.779-169.882-9.83 9.83-50.688-41.062-85.197-134.656 21.709-21.709 134.758 85.299 40.858 50.483-9.626 10.035 170.086 169.882-42.291 41.779zM918.221 39.066c35.226-35.226 35.021-92.262-0.205-127.693-35.226-35.226-92.467-35.43-127.693-0.205l-463.155 463.36c-19.149 19.149-46.182 28.16-72.909 24.474-60.928-8.090-124.826 11.264-171.52 58.163-47.718 47.718-66.97 113.152-57.651 175.002 1.536 9.933 13.619 13.926 20.685 6.861l62.054-62.054c29.491-29.491 77.21-29.491 106.598 0l38.093 38.093c29.491 29.491 29.491 77.21 0 106.701l-62.054 62.157c-7.066 7.066-3.072 19.149 6.861 20.685 62.054 9.216 127.283-9.933 175.002-57.651 46.694-46.694 66.253-110.694 58.163-171.52-3.482-26.829 5.53-53.76 24.678-72.704l463.053-463.667zM864.87 1.792l-472.576 472.474c-10.342 10.342-26.829 10.342-37.171 0-10.342-10.138-10.342-26.829 0-37.171l472.576-472.576c10.342-10.342 26.829-10.342 37.171 0 10.342 10.445 10.342 26.931 0 37.274z" />
<glyph unicode="&#xe92b;" glyph-name="templates" d="M967.066 152.934h56.934v-113.766h-56.934zM540.467-103.066h113.766v-56.934h-113.766zM967.066 323.533h56.934v-113.766h-56.934zM56.934-17.766h-56.934v-142.234h142.234v56.934h-85.299zM369.766-103.066h113.766v-56.934h-113.766zM199.066-103.066h113.766v-56.934h-113.766zM967.066 494.234h56.934v-113.766h-56.934zM711.066-103.066h113.766v-56.934h-113.766zM967.066 664.934h56.934v-113.766h-56.934zM967.066-103.066h-85.299v-56.934h142.234v142.234h-56.934zM0 152.934h56.934v-113.766h-56.934zM199.066 864h113.766v-56.934h-113.766zM0 664.934h56.934v-113.766h-56.934zM0 494.234h56.934v-113.766h-56.934zM711.066 864h113.766v-56.934h-113.766zM0 721.766h56.934v85.299h85.299v56.934h-142.234zM0 323.533h56.934v-113.766h-56.934zM369.766 864h113.766v-56.934h-113.766zM540.467 864h113.766v-56.934h-113.766zM881.766 864v-56.934h85.299v-85.299h56.934v142.234zM164.045 4.045h695.91v695.91h-695.91v-695.91zM216.883 647.117h590.131v-104.858h-590.131v104.858zM216.883 104.192v385.229h590.131v-432.435h-590.131v47.206z" />
<glyph unicode="&#xe92c;" glyph-name="trash" d="M393.318 30.054h-68.71v363.315h68.71v-363.315zM545.382 393.37h-68.71v-363.213h68.71v363.213zM697.446 393.37h-68.71v-363.213h68.71v363.213zM928.051 725.658v-213.709h-68.71v-670.208h-686.797v670.208h-78.438v213.709h230.502v140.186h372.941v-140.186h230.502zM393.318 725.658h235.52v72.192h-235.52v-72.192zM790.733 502.323h-549.478v-592.486h549.478v592.486zM859.341 657.664h-696.627v-77.722h696.627v77.722z" />
<glyph unicode="&#xe92d;" glyph-name="undo" d="M893.44 109.21c-20.89-60.723-55.296-113.664-103.219-158.822-72.090-68.096-159.437-102.81-261.939-104.141-22.938 0-41.984 7.475-57.139 22.221-15.155 14.848-22.733 33.178-22.733 55.091s7.475 40.346 22.221 55.091c14.848 14.848 33.69 22.63 56.627 23.245 18.227 0.614 36.762 3.072 55.603 7.066 46.49 11.469 85.811 35.226 117.862 71.27s50.893 78.438 56.627 126.976-1.331 94.72-21.197 138.547-49.766 77.21-89.498 100.147c-24.986 14.131-51.2 21.606-78.848 22.221h-153.702l-11.162-1.024 97.075-95.027c14.131-14.131 22.221-28.672 24.269-43.52 3.379-17.51 1.536-33.894-5.53-49.050s-18.022-26.829-32.87-34.918c-14.848-8.090-30.515-11.162-47.002-9.114s-31.232 9.114-44.032 21.197c-14.131 14.131-57.958 57.651-131.482 130.458l-147.763 147.968c-4.71 4.096-7.066 7.578-7.066 10.65s2.355 6.554 7.066 10.547l275.046 275.149c16.896 16.896 35.533 25.6 56.115 26.317 20.582 0.614 38.912-6.554 55.091-21.709s24.474-33.587 24.781-55.091c0.307-21.606-7.578-40.448-23.757-56.627-12.8-13.517-28.672-29.696-47.514-48.538-26.829-25.907-43.213-41.779-49.357-47.616 2.662-1.536 5.427-2.662 8.499-3.482-0.102 0.307 4.096 0.512 12.595 0.512 7.475-0.717 35.021-0.717 82.944 0 33.69 0 61.338-1.024 82.944-3.072 102.502-9.421 185.754-59.699 249.856-150.733 37.786-53.965 60.723-112.947 68.813-177.050 8.806-63.386 2.662-125.133-18.227-185.139z" />
<glyph unicode="&#xe92e;" glyph-name="add-row" horiz-adv-x="1451" d="M1217.707 854.613h-1167.787c-0.025 0-0.055 0-0.085 0-24.224 0-43.861-19.637-43.861-43.861 0 0 0 0 0 0v0-614.4c0-24.235 19.627-43.861 43.947-43.861h649.387c24.462-172.103 170.823-302.993 347.755-302.993 193.886 0 351.061 157.176 351.061 351.061 0 112.748-53.151 213.082-135.763 277.312l-0.792 0.592v332.203c0 0.025 0 0.055 0 0.085 0 24.224-19.637 43.861-43.861 43.861 0 0 0 0 0 0v0zM93.781 766.891h1079.979v-239.36c-37.603 14.999-81.182 23.697-126.793 23.697-179.775 0-327.988-135.129-348.61-309.357l-0.16-1.657h-604.331v526.677zM1310.635 200.619c0-145.438-117.901-263.339-263.339-263.339s-263.339 117.901-263.339 263.339v0c2.663 143.385 119.525 258.598 263.296 258.598s260.633-115.214 263.292-258.349l0.004-0.249zM1090.987 399.531h-87.723v-155.051h-155.136v-87.808h155.136v-155.136h87.723v155.051h155.051v87.893h-155.051z" />
<glyph unicode="&#xe92f;" glyph-name="columns-icon" d="M984.649 864h-945.298c-21.716-0.042-39.309-17.635-39.351-39.347v-945.302c0-21.723 17.627-39.351 39.351-39.351h945.298c21.716 0.042 39.309 17.635 39.351 39.347v945.302c-0.042 21.716-17.635 39.309-39.347 39.351h-0.004zM78.775 785.225h393.874v-866.45h-393.874v866.45zM945.225-81.225h-393.874v866.45h393.874v-866.45z" />
<glyph unicode="&#xe930;" glyph-name="copy-icon" horiz-adv-x="951" d="M734.501 824.649h-459.703c-0.043 0-0.095 0-0.146 0-30.245 0-54.774-24.477-54.857-54.703v-10.979h-164.864c-0.022 0-0.048 0-0.073 0-30.245 0-54.774-24.477-54.857-54.703v-809.553c0.083-30.234 24.612-54.711 54.857-54.711 0.026 0 0.052 0 0.077 0h615.493c0.043 0 0.095 0 0.146 0 30.245 0 54.774 24.477 54.857 54.703v10.979h164.864c0.022 0 0.048 0 0.074 0 30.22 0 54.732 24.435 54.857 54.626v654.641l-210.651 209.627zM747.374 749.897l122.807-122.149h-111.762c-6.001 0.080-10.85 4.903-10.971 10.887v111.261zM681.472-105.289c0-6.059-4.912-10.971-10.971-10.971v0h-615.643c-6.059 0-10.971 4.912-10.971 10.971v809.545c0 6.059 4.912 10.971 10.971 10.971v0h164.864v-229.742h-76.873v-43.813h76.946v-65.609h-76.946v-43.739h76.946v-65.682h-76.946v-43.739h76.946v-65.609h-76.946v-43.813h76.946v-153.161c0.083-30.234 24.612-54.711 54.857-54.711 0.052 0 0.103 0 0.154 0h406.666v-10.971zM890.295-50.578h-615.497c-6.059 0-10.971 4.912-10.971 10.971v0 809.472c0 6.059 4.912 10.971 10.971 10.971h428.617v-142.263c0.083-30.234 24.612-54.711 54.857-54.711 0.052 0 0.103 0 0.154 0h142.84v-623.616c0-6.059-4.912-10.971-10.971-10.971v0zM362.715 551.095h439.589v-43.739h-439.515v43.739zM362.715 441.673h439.589v-43.739h-439.515v43.739zM362.715 332.325h439.589v-43.813h-439.515v43.813zM362.715 222.903h439.589v-43.739h-439.515v43.739z" />
<glyph unicode="&#xe931;" glyph-name="delete-icon" d="M767.527 516.47v-470.882c0-20.874 0.236-41.669 0-62.464-0.017-2.933-0.217-5.802-0.589-8.617l0.037 0.346c0.551 3.938 1.182 8.113 1.575 12.052-0.787-5.51-2.136-10.474-4.015-15.169l0.155 0.439c1.497 3.702 3.151 7.326 4.569 11.028-2.327-5.474-5.072-10.192-8.318-14.512l0.126 0.176 7.168 9.295c-3.126-3.943-6.565-7.407-10.351-10.457l-0.126-0.098 9.216 7.247c-4.124-3.144-8.815-5.913-13.818-8.1l-0.439-0.171c3.623 1.497 7.326 3.151 11.028 4.569-4.292-1.8-9.285-3.179-14.488-3.902l-0.32-0.036c3.938 0.63 8.113 1.182 12.13 1.654-6.38-0.788-12.918-0.551-19.456-0.551h-422.361c-19.298 0-38.597-0.236-57.895 0-2.962 0.018-5.859 0.218-8.701 0.589l0.352-0.037 12.052-1.575c-5.516 0.815-10.477 2.19-15.166 4.095l0.437-0.157 11.028-4.647c-5.473 2.352-10.19 5.122-14.506 8.394l0.17-0.123 9.295-7.247c-3.943 3.147-7.408 6.612-10.454 10.424l-0.101 0.131 7.247-9.295c-3.144 4.124-5.913 8.815-8.1 13.818l-0.171 0.439c1.497-3.623 3.151-7.247 4.569-10.949-1.793 4.268-3.171 9.233-3.901 14.406l-0.037 0.323c0.63-3.938 1.182-8.113 1.654-12.052-0.788 6.695-0.551 13.548-0.551 20.48v454.42c0 21.898 0.315 43.874 0 65.851v0.866c0 23.867-21.031 46.868-45.686 45.686-24.812-1.103-45.686-20.086-45.686-45.686v-533.662c0.315-37.337 20.165-72.783 52.618-91.609 24.261-14.178 49.625-14.415 76.091-14.415h466.235c20.244 0 40.802 4.569 58.053 15.518 30.437 19.206 50.448 52.519 50.806 90.532v533.793c0 23.867-21.031 46.789-45.686 45.686-24.734-1.26-45.686-20.244-45.686-45.844zM933.73 717.726h-855.985c-23.946 0-46.946-21.031-45.765-45.686 1.103-24.812 20.086-45.686 45.686-45.686h855.906c23.946 0 46.868 20.953 45.686 45.686-0.945 24.812-19.929 45.686-45.529 45.686zM372.578 672.039v99.722c0 5.278-0.158 10.634 0.236 15.911l-1.575-12.13c0.401 2.77 1.089 5.264 2.047 7.62l-0.078-0.216c-1.497-3.623-3.151-7.247-4.569-10.949 1.339 3.067 2.921 5.71 4.79 8.12l-0.064-0.086-7.247-9.295c1.999 2.449 4.168 4.617 6.535 6.552l0.081 0.065-9.216-7.168c2.757 2.133 5.893 4.005 9.243 5.48l0.288 0.113c-3.623-1.497-7.247-3.151-10.949-4.569 2.642 1.035 5.764 1.91 8.993 2.477l0.302 0.044c-4.017-0.551-8.113-1.182-12.13-1.575 10.476 1.26 21.504 0.315 31.98 0.315h226.619c12.761 0 26.151 1.103 38.833-0.315-1.73 0.32-5.88 0.876-10.047 1.373l-2.084 0.202c2.363-0.473 4.805-1.024 7.089-1.969-3.623 1.575-7.247 3.151-10.949 4.569 2.798-1.195 5.211-2.648 7.39-4.382l-0.065 0.050-9.295 7.247c1.838-1.554 3.487-3.203 4.991-4.98l0.050-0.061-7.168 9.216c1.598-2.144 3.067-4.573 4.297-7.139l0.115-0.265-4.569 11.028c1.225-2.912 2.187-6.306 2.726-9.84l0.030-0.243c-0.317 1.695-0.872 5.817-1.37 9.956l-0.205 2.096c1.339-13.391 0.236-27.254 0.236-40.802v-76.406c0-23.867 21.031-46.868 45.686-45.686 24.812 1.103 45.686 20.086 45.686 45.686 0 37.494 0.788 75.067 0 112.561-0.551 35.052-23.946 70.971-60.337 77.43-6.798 1.253-14.62 1.97-22.61 1.97-0.11 0-0.22 0-0.329 0h-280.795c-0.088 0-0.192 0.001-0.296 0.001-24.075 0-45.825-9.955-61.359-25.973l-0.021-0.022c-13.236-13.942-21.577-32.642-22.21-53.283l-0.003-0.123v-112.561c0-23.867 21.031-46.868 45.686-45.686 24.734 1.339 45.686 20.322 45.686 45.922zM360.763 516.47v-362.102c0-16.699-0.394-33.398 0-50.097v-0.63c0-23.946 21.031-46.868 45.686-45.686 24.812 1.103 45.686 20.086 45.686 45.686v362.102c0 16.699 0.394 33.398 0 50.018v0.788c0 23.788-21.031 46.789-45.686 45.686-24.812-1.182-45.686-20.165-45.686-45.686zM561.782 516.47v-362.102c0-16.699-0.394-33.398 0-50.097v-0.63c0-23.946 21.031-46.868 45.686-45.686 24.812 1.103 45.686 20.086 45.686 45.686v362.102c0 16.699 0.394 33.398 0 50.018v0.788c0 23.788-21.031 46.789-45.686 45.686-24.812-1.182-45.686-20.165-45.686-45.686z" />
<glyph unicode="&#xe932;" glyph-name="duplicate-icon" horiz-adv-x="887" d="M156.123 642.92h256.407c12.535 0 22.792 10.256 22.792 22.792s-10.256 22.792-22.792 22.792h-256.407c-12.535 0-22.792-10.256-22.792-22.792s10.256-22.792 22.792-22.792zM815.944 584.801h-251.849v251.849c0 12.535-10.256 22.792-22.792 22.792h-513.954c-12.535 0-22.792-10.256-22.792-22.792v-673.496c0-12.535 10.256-22.792 22.792-22.792h251.849v-251.849c0-12.535 10.256-22.792 22.792-22.792h513.954c12.535 0 22.792 10.256 22.792 22.792v673.496c0 12.535-10.256 22.792-22.792 22.792zM50.142 185.946v627.912h468.37v-229.057h-216.521c-12.535 0-22.792-10.256-22.792-22.792v-38.746h-123.075c-12.535 0-22.792-10.256-22.792-22.792s10.256-22.792 22.792-22.792h124.215v-119.657h-124.215c-12.535 0-22.792-10.256-22.792-22.792s10.256-22.792 22.792-22.792h124.215v-126.494h-230.197zM793.152-88.694h-468.37v627.912h468.37v-627.912zM430.764 367.14h256.407c12.535 0 22.792 10.256 22.792 22.792s-10.256 22.792-22.792 22.792h-256.407c-12.535 0-22.792-10.256-22.792-22.792s10.256-22.792 22.792-22.792zM430.764 201.9h256.407c12.535 0 22.792 10.256 22.792 22.792s-10.256 22.792-22.792 22.792h-256.407c-12.535 0-22.792-10.256-22.792-22.792s10.256-22.792 22.792-22.792zM430.764 36.66h256.407c12.535 0 22.792 10.256 22.792 22.792s-10.256 22.792-22.792 22.792h-256.407c-12.535 0-22.792-10.256-22.792-22.792s10.256-22.792 22.792-22.792z" />
<glyph unicode="&#xe933;" glyph-name="edit-icon" d="M783.067 864c-27.721 0-53.979-11.118-73.362-30.501l-596.846-597.211c-11.754-12.143-20.78-27.001-26.042-43.537l-0.216-0.787-84.407-289.646c-5.486-16.603 0-34.597 12.434-48.494 8.726-8.552 20.688-13.83 33.883-13.83 0.277 0 0.553 0.002 0.828 0.007l-0.042-0.001c4.169 0 9.655 0 13.897 1.39l289.353 84.553c17.328 5.5 32.186 14.55 44.352 26.358l-0.028-0.027 596.699 597.211c18.791 18.795 30.414 44.758 30.414 73.435s-11.623 54.641-30.414 73.435l-137.143 137.143c-18.758 18.819-44.697 30.472-73.357 30.501h-0.005zM359.351 52.041l-146.725 146.871 401.554 401.774 146.725-146.944-401.554-401.774zM164.133 111.579l108.032-108.105-152.357-44.325 44.325 152.43zM927.013 622.848c0-1.317 0-2.706-1.317-5.486l-95.525-94.208-146.798 146.871 94.135 94.208c1.463 1.39 4.169 1.39 5.559 1.39s2.779 0 5.559-1.39l137.070-137.216c0-1.317 1.39-2.706 1.39-4.096z" />
<glyph unicode="&#xe934;" glyph-name="eye-disable-icon" d="M1005.519 375.698c-67.186 66.095-135.482 118.682-204.917 156.794l124.298 95.162c8.002 6.024 13.127 15.511 13.127 26.183 0 7.955-2.834 15.23-7.553 20.893l0.043-0.059c-12.336 14.544-32.496 17.904-47.037 5.616l-151.178-115.377c-79.528 32.496-161.258 48.193-244.132 44.833-278.836-11.233-464.696-226.242-472.519-235.156-5.222-5.751-8.416-13.414-8.416-21.84s3.194-16.089 8.431-21.86l-0.021 0.021c4.464-5.616 80.619-92.961 206.020-160.154l-122.042-94.058c-8.002-6.024-13.127-15.511-13.127-26.183 0-7.955 2.834-15.23 7.553-20.893l-0.043 0.059c6.15-8.241 15.888-13.509 26.845-13.509 7.619 0 14.652 2.55 20.273 6.857l-0.079-0.063 150.074 115.322c59.305-23.52 125.402-40.32 198.2-43.678h23.52c171.334 0 337.038 78.433 493.832 234.052 6.213 5.898 10.080 14.21 10.080 23.418 0 0.029 0 0.063 0 0.105v-0.008c-0.189 9.428-4.5 17.82-11.187 23.483l-0.050 0.037zM88.404 352.19c53.753 52.656 204.917 181.409 404.287 190.392 4.827 0.159 10.507 0.255 16.197 0.255 57.878 0 113.531-9.526 165.491-27.097l-3.631 1.070-75.073-58.203c-24.62 16.8-52.585 27.978-83.978 27.978-73.903 0-134.378-60.47-134.378-134.378 0-19.056 3.36-36.96 11.233-52.656l-107.498-82.825c-74.281 35.996-137.885 81.333-192.706 135.535l0.063-0.063zM601.292 352.19c0-49.296-40.32-89.603-89.603-89.603-0.061 0-0.116 0-0.189 0-16.47 0-31.858 4.595-44.98 12.557l0.388-0.221 131.018 101.882c2.256-7.824 3.36-16.8 3.36-24.62zM422.146 352.19c0 49.296 40.32 89.603 89.545 89.603 16.8 0 31.393-4.513 44.833-12.336l-131.018-101.882c-2.12 7.368-3.337 15.847-3.36 24.608v0.016zM491.536 161.804c-50.33 2.176-97.77 11.439-142.357 26.836l3.516-1.060 76.17 58.203c22.353-17.904 51.486-27.978 82.825-27.978 73.903 0 134.378 60.47 134.378 134.378 0.021 0.777 0.023 1.7 0.023 2.624 0 18.171-4.135 35.376-11.517 50.731l0.311-0.699 106.394 81.722c64.922-31.337 128.762-76.17 192.58-134.378-143.354-132.122-291.172-195.94-442.346-190.392z" />
<glyph unicode="&#xe935;" glyph-name="move-icon" d="M1019.026 352v2.487c-0.318 9.877-4.576 18.701-11.247 24.999l-0.017 0.016-156.087 156.087c-6.823 6.503-16.080 10.504-26.272 10.504-11.404 0-21.638-5.010-28.622-12.948l-0.037-0.042c-6.405-7.086-10.324-16.526-10.324-26.88s3.919-19.794 10.355-26.915l-0.031 0.035 89.893-89.893h-335.945v337.189l89.966-89.966c7.185-7.655 17.367-12.423 28.663-12.423 10.082 0 19.276 3.798 26.23 10.042l-0.036-0.032c7.702 7.19 12.503 17.403 12.503 28.738 0 10.046-3.772 19.212-9.977 26.158l0.034-0.038-2.487 2.56-156.087 156.087c-7.072 6.964-16.785 11.264-27.502 11.264s-20.43-4.3-27.507-11.269l-156.082-156.082c-7.7-7.19-12.499-17.401-12.499-28.734 0-10.083 3.799-19.278 10.044-26.233l-0.032 0.036c7.19-7.7 17.401-12.499 28.734-12.499 10.083 0 19.278 3.799 26.233 10.044l-0.036-0.032 92.453 92.379v-334.702h-335.945l89.966 89.966c6.46 6.814 10.432 16.041 10.432 26.197 0 11.405-5.010 21.64-12.95 28.624l-0.042 0.037c-7.081 6.385-16.506 10.291-26.843 10.291s-19.762-3.906-26.879-10.323l0.036 0.032-154.843-157.184c-6.964-7.072-11.264-16.785-11.264-27.502s4.3-20.43 11.269-27.507l156.082-156.155c6.823-6.503 16.080-10.504 26.272-10.504 11.404 0 21.638 5.010 28.622 12.948l0.037 0.042c6.405 7.086 10.324 16.526 10.324 26.88s-3.919 19.794-10.355 26.915l0.031-0.035-89.893 88.576h334.702v-335.945l-89.966 89.966c-6.814 6.46-16.041 10.432-26.197 10.432-11.405 0-21.64-5.010-28.624-12.95l-0.037-0.042c-6.385-7.081-10.291-16.506-10.291-26.843s3.906-19.762 10.323-26.879l-0.032 0.036 156.014-156.087 5.047-2.487c2.487-2.487 4.974-3.73 7.461-5.047 4.974-2.487 10.021-2.487 14.994-2.487 9.85 0.338 18.645 4.593 24.925 11.247l0.016 0.017 156.16 156.087c6.483 6.818 10.47 16.062 10.47 26.237 0 11.423-5.026 21.672-12.987 28.656l-0.043 0.037c-7.081 6.385-16.506 10.291-26.843 10.291s-19.762-3.906-26.879-10.323l0.036 0.032-86.162-89.893v336.018h334.702l-89.966-89.966c-7.678-7.188-12.463-17.385-12.463-28.701 0-10.064 3.785-19.244 10.009-26.194l-0.033 0.037c7.195-7.744 17.435-12.575 28.804-12.575 10.084 0 19.281 3.8 26.236 10.047l-0.036-0.032 158.574 158.574c1.243 2.56 3.73 3.803 4.974 6.29 1.444 1.796 2.694 3.843 3.662 6.042l0.069 0.175c3.148 4.020 5.048 9.149 5.048 14.722 0 0.096-0.001 0.191-0.002 0.287v-0.015z" />
<glyph unicode="&#xe936;" glyph-name="eye-icon" horiz-adv-x="1451" d="M1399.467 386.133c-93.867 93.867-187.733 162.133-281.6 213.333l-93.867 51.2c-102.4 42.667-204.8 59.733-307.2 59.733h-34.133c-384-17.067-648.533-315.733-657.067-324.267-17.067-17.067-17.067-42.667 0-59.733 8.533-8.533 110.933-128 281.6-221.867l93.867-42.667c85.333-34.133 170.667-59.733 273.067-59.733h34.133c238.933 0 469.333 110.933 682.667 324.267 8.533 8.533 17.067 17.067 17.067 34.133 8.533 8.533 0 17.067-8.533 25.6zM128 352s546.133 597.333 1169.067 0c0 0-546.133-605.867-1169.067 0zM512 352c0-110.933 85.333-196.267 196.267-196.267s196.267 85.333 196.267 196.267c0 110.933-85.333 196.267-196.267 196.267-102.4 8.533-196.267-85.333-196.267-196.267zM716.8 462.933c59.733 0 110.933-51.2 110.933-110.933s-51.2-110.933-110.933-110.933c-59.733 0-110.933 51.2-110.933 110.933s51.2 110.933 110.933 110.933z" />
<glyph unicode="&#xe937;" glyph-name="option-icon" horiz-adv-x="1376" d="M286.399 352c0-73.933-59.934-133.867-133.867-133.867s-133.867 59.934-133.867 133.867c0 73.933 59.934 133.867 133.867 133.867s133.867-59.934 133.867-133.867zM821.866 352c0-73.933-59.934-133.867-133.867-133.867s-133.867 59.934-133.867 133.867c0 73.933 59.934 133.867 133.867 133.867s133.867-59.934 133.867-133.867zM1357.333 352c0-73.933-59.934-133.867-133.867-133.867s-133.867 59.934-133.867 133.867c0 73.933 59.934 133.867 133.867 133.867s133.867-59.934 133.867-133.867z" />
<glyph unicode="&#xe938;" glyph-name="paste-icon" horiz-adv-x="878" d="M708.242-160h-443.685c-61.294 0-110.958 53.175-110.958 118.711v632.978c0 65.536 49.664 118.711 110.958 118.711h443.685c61.294 0 110.958-53.175 110.958-118.711v-632.978c0-65.536-49.664-118.711-110.958-118.711zM264.558 631.259c-20.48 0-37.010-17.701-37.010-39.497v-633.051c0-21.87 16.53-39.57 37.010-39.57h443.685c20.48 0 37.010 17.701 37.010 39.497v633.125c0 21.87-16.53 39.57-37.010 39.57h-443.685zM184.905-6.4h-73.947c-61.294 0-110.958 53.175-110.958 118.711v632.978c0 65.536 49.664 118.711 110.958 118.711h443.685c61.294 0 110.958-53.175 110.958-118.711v-79.141c0-14.555-11.922-23.333-35.84-26.331-25.381 2.999-38.107 11.776-38.107 26.331v79.141c0 21.87-16.53 39.57-37.010 39.57h-443.685c-20.48 0-37.010-17.701-37.010-39.497v-633.051c0-21.87 16.53-39.57 37.010-39.57h73.874c20.48 0 37.010-17.701 37.010-39.57s-16.53-39.57-36.937-39.57zM629.76 403.2h-286.72c-19.749 0-35.84 22.894-35.84 51.2s16.091 51.2 35.84 51.2h286.72c19.749 0 35.84-22.894 35.84-51.2s-16.091-51.2-35.84-51.2zM629.76 249.6h-286.72c-19.749 0-35.84 22.894-35.84 51.2s16.091 51.2 35.84 51.2h286.72c19.749 0 35.84-22.894 35.84-51.2s-16.091-51.2-35.84-51.2zM477.842 96h-136.485c-18.871 0-34.158 22.894-34.158 51.2s15.287 51.2 34.158 51.2h136.485c18.871 0 34.158-22.894 34.158-51.2s-15.287-51.2-34.158-51.2z" />
<glyph unicode="&#xe939;" glyph-name="save-icon" horiz-adv-x="951" d="M77.751 863.781h603.502c8.046 0 15.287-3.218 20.48-8.485l215.186-215.186c5.242-5.231 8.485-12.462 8.485-20.452 0-0.010 0-0.020 0-0.030v0.002-740.571c0-15.997-12.968-28.965-28.965-28.965v0h-818.688c-15.997 0-28.965 12.968-28.965 28.965v0 955.685c0 16.018 12.946 28.965 28.965 28.965zM487.131 361.070c90.507 0 163.877-73.37 163.877-163.877s-73.37-163.877-163.877-163.877v0c-90.507 0-163.877 73.37-163.877 163.877s73.37 163.877 163.877 163.877v0zM487.131 303.141c-58.513 0-105.947-47.434-105.947-105.947s47.434-105.947 105.947-105.947v0c58.513 0 105.947 47.434 105.947 105.947s-47.434 105.947-105.947 105.947v0zM686.519 788.59v-284.965c0-15.997-12.968-28.965-28.965-28.965v0h-416.914c-0.022 0-0.047 0-0.073 0-15.997 0-28.965 12.968-28.965 28.965 0 0 0 0 0 0v0 302.226h-104.814v-897.829h760.686v699.611l-180.955 181.029zM269.605 805.851v-273.189h358.985v273.189h-359.058z" />
<glyph unicode="&#xe93a;" glyph-name="text-icon" d="M896-160h-597.358c-70.692 0-128 57.308-128 128v0 597.358c0 70.656 57.344 128 128 128h597.358c70.656 0 128-57.344 128-128v-597.358c0-70.692-57.308-128-128-128v0zM298.642 608c-23.551 0-42.642-19.092-42.642-42.642v0-597.358c0-23.552 19.090-42.642 42.642-42.642h597.358c23.551 0 42.642 19.092 42.642 42.642v0 597.358c0 23.551-19.092 42.642-42.642 42.642v0h-597.358zM213.358 10.642h-85.358c-70.692 0-128 57.308-128 128v0 597.358c0 70.656 57.344 128 128 128h597.358c70.656 0 128-57.344 128-128v-85.358c0-23.571-19.108-42.679-42.679-42.679s-42.679 19.108-42.679 42.679v0 85.358c0 23.551-19.092 42.642-42.642 42.642v0h-597.358c-23.551 0-42.642-19.092-42.642-42.642v0-597.358c0-23.552 19.017-42.642 42.642-42.642h85.358c23.571 0 42.679-19.108 42.679-42.679s-19.108-42.679-42.679-42.679v0zM749.714 352c-23.551 0-42.642 19.092-42.642 42.642v0 42.715h-256v-42.715c0-23.571-19.108-42.679-42.679-42.679s-42.679 19.108-42.679 42.679v0 85.358c0 23.552 19.090 42.642 42.642 42.642h341.358c23.552 0 42.642-19.017 42.642-42.642v-85.358c0-23.551-19.092-42.642-42.642-42.642v0zM579.072 10.642c-0.022 0-0.047 0-0.073 0-23.551 0-42.642 19.092-42.642 42.642 0 0.026 0 0.051 0 0.077v-0.004 426.642c0 23.571 19.108 42.679 42.679 42.679s42.679-19.108 42.679-42.679v0-426.642c0-0.022 0-0.047 0-0.073 0-23.551-19.092-42.642-42.642-42.642 0 0 0 0 0 0v0zM664.357 10.642h-170.642c-23.571 0-42.679 19.108-42.679 42.679s19.108 42.679 42.679 42.679v0h170.642c23.571 0 42.679-19.108 42.679-42.679s-19.108-42.679-42.679-42.679v0z" />
<glyph unicode="&#xe93b;" glyph-name="not-columns-icon" d="M925.568 800h-827.136c-19.002-0.036-34.396-15.43-34.432-34.429v-827.139c0-19.008 15.424-34.432 34.432-34.432h827.136c19.002 0.036 34.396 15.43 34.432 34.429v827.139c-0.036 19.002-15.43 34.396-34.429 34.432h-0.003zM132.928 731.072h344.64v-758.144h-344.64v758.144zM891.072-27.072h-344.64v758.144h344.64v-758.144zM980.672 816.192l-935.744-931.264" />
<glyph unicode="&#xe93c;" glyph-name="arrow_right" horiz-adv-x="614" d="M534.528 329.472l-472.166-472.064c-6.588-6.638-15.717-10.748-25.805-10.748s-19.217 4.109-25.803 10.745l-0.002 0.002c-6.608 6.583-10.696 15.691-10.696 25.754s4.089 19.17 10.695 25.753l446.772 446.465-446.771 446.259c-6.626 6.613-10.725 15.756-10.725 25.856 0 20.175 16.355 36.53 36.53 36.53 10.075 0 19.197-4.078 25.805-10.674l472.165-472.268c6.608-6.583 10.696-15.691 10.696-25.754s-4.089-19.17-10.695-25.753l-0.001-0.001z" />
</font>
</defs>
</svg>
