<?xml version="1.0" standalone="no"?>
<!DOCTYPE svg PUBLIC "-//W3C//DTD SVG 1.1//EN" "http://www.w3.org/Graphics/SVG/1.1/DTD/svg11.dtd">
<svg xmlns="http://www.w3.org/2000/svg">
<metadata>Copyright (C) 2010 - 2016 JoomShaper</metadata>
<defs>
<font id="sppagebuilder" horiz-adv-x="1000" >
<font-face font-family="SP Page Builder" font-weight="400" font-stretch="normal" units-per-em="1000" ascent="850" descent="-150" />
<missing-glyph horiz-adv-x="1000" />
<glyph glyph-name="12" unicode="&#xe900;" d="M802.5 850H0V-150h1000V850H802.5z m159.4 -961.5H38.1v923h923.7v-923z" horiz-adv-x="1000" />
<glyph glyph-name="2-10" unicode="&#xe901;" d="M0 -150h193.6V850H0V-150z m38.7 961.5h116.1v-923.1H38.7v923.1zM889.2 850H242.3V-150H1000V850H889.2zM281 -111.5v923h680.2v-923H281z" horiz-adv-x="1000" />
<glyph glyph-name="2-5-5" unicode="&#xe902;" d="M641.7 850V-150H1000V850H641.7z m38.7 -961.5v923h280.8v-923H680.4zM242.3 -150h358.3V850H242.3V-150zM281 811.5h280.8v-923.1H281v923.1zM0 -150h193.6V850H0V-150z m38.7 961.5h116.1v-923.1H38.7v923.1z" horiz-adv-x="1000" />
<glyph glyph-name="3-3-3-3" unicode="&#xe903;" d="M0 850V-150h215V850H0z m176 -961.6H39v923.1h137v-923.1zM261.6 850V-150h215.1V850H261.6z m176.1 -961.6H300.6v923.1h137.1v-923.1z m161 961.6h-75.4V-150h215V850H598.7z m100.7 -961.6H562.3v923.1h137.1v-923.1zM925.8 850H785V-150h215V850h-74.2zM961 -111.5H824v923h137v-923z" horiz-adv-x="1000" />
<glyph glyph-name="3-6-3" unicode="&#xe904;" d="M0 850V-150h215V850H0z m176 -961.6H39v923.1h137v-923.1zM656.1 850H261.7V-150h476.7V850h-82.3z m43.3 -961.6H300.6v923.1h398.8v-923.1zM925.8 850H785V-150h215V850h-74.2zM961 -111.5H824v923h137v-923z" horiz-adv-x="1000" />
<glyph glyph-name="3-9" unicode="&#xe905;" d="M0 850V-150h215V850H0z m176 -961.6H39v923.1h137v-923.1zM874.8 850H261.7V-150H1000V850H874.8zM961 -111.5H300.6v923H961v-923z" horiz-adv-x="1000" />
<glyph glyph-name="4-4-4" unicode="&#xe906;" d="M770.9 850h-74.6V-150H1000V850H770.9z m191 -961.5H734.5v923h227.4v-923zM400.7 850h-52.6V-150h303.7V850H400.7z m213 -961.6H386.4v923.1h227.3v-923.1zM0 850V-150h303.7V850H0z m265.6 -961.6H38.1v923.1h227.5v-923.1z" horiz-adv-x="1000" />
<glyph glyph-name="6-6-12" unicode="&#xe907;" d="M474.6 456.3V850H1V374.9h473.6v81.4z m-38.8 -42.9H39.7v398.1h396.1V413.4zM526.4 850V374.9H1000V850H526.4zM961.3 413.4H565.2v398.1h396.1V413.4zM0 294.3v-444.2h1000v474.5H0v-30.3z m38.5 -399.9v391.4h923.1v-397H38.5v5.6z" horiz-adv-x="1000" />
<glyph glyph-name="6-6" unicode="&#xe908;" d="M0 850V-150h477V850H0z m438.1 -961.6H39v923.1h399.1v-923.1zM954.8 850H522.9V-150H1000V850h-45.2z m6.2 -961.5H561.9v923H961v-923z" horiz-adv-x="1000" />
<glyph glyph-name="8-4" unicode="&#xe909;" d="M770.9 850h-74.6V-150H1000V850H770.9z m191 -961.5H734.5v923h227.4v-923zM412.6 850H0V-150h651.8V850H412.6z m201.1 -38.5v-923.1H38.1v923.1h575.6z" horiz-adv-x="1000" />
<glyph glyph-name="add-columns" unicode="&#xe90a;" d="M0 850h139.7V-150H0V850zM289.5 -150h139.7V850H289.5V-150zM718.7 850H579V586.3h139.7V850z m281.3 0H860.3V445H1000v405z m0 -714.7H818.6v185.5h-99.9V135.3H529.2V35.4h189.5V-150h99.9V35.4H1000v99.9z" horiz-adv-x="1000" />
<glyph glyph-name="add-new-row" unicode="&#xe90b;" d="M772.4 379.9H1000v-73.2H772.4V79.2h-71.5v227.5H470.4v73.2h230.5v240.9h71.5V379.9zM0 850v-80h1000v80H0zM599.6 616.8H0v-80h599.6v80zM0 -150h599.6v80H0v-80z m397.6 533.6H0v-80h397.6v80zM275.9 161.7H0v-80h275.9v80z" horiz-adv-x="1000" />
<glyph glyph-name="addon" unicode="&#xe90c;" d="M1000 586.4v-80.1H743.9v-249h-80.4v249H404.1v80.1h259.4V850h80.4V586.4H1000zM920 -70.4H80v840.8h315V850H0V-150h1000v416.4h-80V-70.4z" horiz-adv-x="1000" />
<glyph glyph-name="addons" unicode="&#xe90d;" d="M882.2 613.5c-24.3 44 -55.2 82.4 -92.8 115.6 -10.9 9.6 -27.4 7.5 -36.2 -4.1C738.5 705.7 724 686.8 709.6 668c-8.8 -11.6 -6.7 -28.3 3.8 -38.2C847.2 503.7 838.5 303.1 724.6 185.7 675.8 135.4 613.4 105.1 548.4 94.6v298c.8 .8 1.4 1.9 2.3 2.1 13.6 3.8 26.6 9 38.2 17 28.3 19.6 44.4 45.9 44.2 81.2 -.2 37.2 0 74.4 0 111.6v5.9h-37.4v6c0 31.9 .1 63.9 -.2 95.8 0 4.4 -1.3 9.3 -3.6 13 -5.4 8.7 -17.5 11.9 -28 8.5C553.4 730.4 548.1 723 548 711.5v-101h-94.6v4.1c0 32.7 -.1 65.4 .1 98.1 .1 9.5 -4.3 15.9 -12.5 19.8 -16.1 7.6 -35.8 -3 -35.1 -21.6 1.3 -31.7 .3 -63.6 .3 -95.4v-5.4h-39.7V489.4c0 -15.9 4 -30.8 12.3 -44.4 16.3 -26.9 40.8 -42.6 70.8 -50.2 .7 -.2 1.1 -.6 1.7 -.8V93.7c-58.6 8.8 -114.8 34.2 -160.5 76.6C224.2 232.2 188.2 308.5 187.5 399c-.7 91.8 33.5 168.5 99 230.2 10.6 10 12.6 26.8 3.8 38.3 -14.6 19.1 -29.2 38.1 -43.7 57.1 -8.8 11.5 -25.4 13.8 -36.3 4.1C80.6 614.6 25.9 427.4 88.3 254.8 154.9 70.6 345.2 -60.9 561.3 -30.8 749.6 -4.5 911 148.8 934.5 352.7c10.7 92.4 -7.3 179.5 -52.3 260.8z" horiz-adv-x="1000" />
<glyph glyph-name="blind" unicode="&#xe90e;" d="M551.9 424.3L459.8 313.1c12 -8.9 26.9 -14.2 43 -14.2 40 0 72.3 32.4 72.3 72.3 .1 21 -8.9 39.9 -23.2 53.1zM125.3 353.5c40.8 61.9 95.8 112 159.2 147C261.3 461.6 247.6 416.3 247.6 367.8c0 -39.7 9 -77.3 25.1 -110.9L339 337c-1.8 10 -2.8 20.3 -2.8 30.9 0 94.2 76.3 170.9 170.4 171.5l82.4 99.5c-28.3 4.6 -57 7 -86.1 7C310.7 645.9 131.4 542.4 35 375.7L22.2 353.5 35 331.3C74.9 262.4 129 204.2 192.3 159.8l56.8 68.5c-48.6 32.9 -90.8 75.1 -123.8 125.2z m845.6 22.2C909.3 482 814.1 562.6 703.2 607L615.5 501.1c38.8 -31.5 63.7 -79.5 63.7 -133.3 0 -94.6 -77 -171.5 -171.5 -171.5 -42.2 0 -81 15.4 -110.9 40.8L288.2 105.9C355 76.8 428 61.1 502.9 61.1c192.2 0 371.5 103.5 467.9 270.2l12.8 22.2 -12.7 22.2zM703.4 197.1c39.9 45.8 64.4 105.3 64.4 170.7 0 44.9 -11.4 87.2 -31.6 124.1C793.3 457.4 843 410.5 880.5 353.5 835.9 285.8 774.3 232.3 703.4 197.1z m53.9 500.2c-2.2 1.8 -4.6 3.4 -7 4.6 -5.1 2.6 -10.5 4.1 -16 4.4 -12.2 .7 -24.6 -4.2 -32.9 -14.3L212.2 101.5c-6.6 -8 -9.6 -18 -9 -27.7 .3 -5.6 1.8 -11 4.4 -16.1 2.4 -4.6 5.7 -8.8 9.9 -12.3 16.8 -13.9 42 -11.6 56 5.3l489.1 590.6c13.9 16.9 11.5 42.1 -5.3 56z" horiz-adv-x="1000" />
<glyph glyph-name="check-box" unicode="&#xe90f;" d="M280.3 515.5l-82.1 -81.7 283.6 -282L1000 667.3 917.9 749 481.8 315.2zM920 -70.4H80v840.8h641.9V850H0V-150h1000v416.4h-80z" horiz-adv-x="1000" />
<glyph glyph-name="close" unicode="&#xe910;" d="M555.2 349.5L775.9 128.8 720.7 73.6 500 294.3 279.3 73.7l-55.2 55.2 220.7 220.7L224.2 570.2l55.2 55.2L500 404.7l220.7 220.7 55.2 -55.2L555.2 349.5z" horiz-adv-x="1000" />
<glyph glyph-name="column" unicode="&#xe911;" d="M0 -150h275.8V850H0V-150z m82 917.7h108.2V-69H82v836.7zM362.1 -150h275.8V850H362.1V-150z m82 917.7h108.2V-69H444.1v836.7zM724.2 850V-150H1000V850H724.2zM914.3 -69H806.1v836.7h108.2V-69z" horiz-adv-x="1000" />
<glyph glyph-name="copy" unicode="&#xe912;" d="M761 850H301.5V644.8H0v-794.9h698.5V55H1000v566.5L761 850z m18.9 -105.2l110 -105.1h-110v105.1zM635.6 6v-92.9H62.9v668.6h238.6V55.1h334.1V6z m301.5 205.1v-92.9H364.4v668.7H717V576.6h220.1V211.1z" horiz-adv-x="1000" />
<glyph glyph-name="drag-up-down" unicode="&#xe913;" d="M944.4 155.6h55.6V44.5h-55.6v111.1z m0 55.5h55.6v111.1h-55.6V211.1zM55.6 -11.1H0V-150h138.9v55.6H55.6v83.3z m888.8 388.9h55.6v111.1h-55.6V377.8z m0 277.8V544.5h55.6v111.1h-55.6z m0 -750h-83.3V-150H1000v138.9h-55.6v-83.3z m-888.8 250H0V44.5h55.6v111.1z m0 500H0V544.5h55.6v111.1z m0 -166.7H0V377.8h55.6v111.1zM0 711.1h55.6v83.3h83.3V850H0V711.1zM55.6 322.2H0V211.1h55.6v111.1z m888.8 388.9h55.6V850H861.1v-55.6h83.3v-83.3zM540 169.6V23.9h130.1L500 -145.3 329.9 23.9H460v145.8c-82.2 19.8 -148.5 97.5 -148.2 183.1 0 85.8 65.9 162.8 148.2 182.2v145.6H329.9L500 849.8 670.1 680.6H540V535c82.5 -19.4 148 -96.6 148.3 -183.3C688.5 267.5 621.6 189.4 540 169.6zM625 352c.1 72.8 -51.8 124.8 -124.7 125.1C428 477.4 374.8 425.2 374.7 354c0 -74.1 51.2 -125.7 124.7 -125.9C572.8 228 624.9 279.4 625 352z" horiz-adv-x="1000" />
<glyph glyph-name="drag" unicode="&#xe914;" d="M1000 350L830 520V390H683.6c-11.7 49.6 -44.5 93.2 -87.5 120 -17.3 10.8 -36.2 18.9 -56.1 23.6V680h130L500 850 330 680h130V533.6C390.5 517.2 332.8 459.5 316.5 390H170v130L0 350 170 180v130h146.5c1.7 -7 3.9 -14 6.4 -20.8l.6 -1.7v-.1c22.5 -58.8 75 -106.1 136.4 -120.9V20H330l170 -170L670 20H540v146.5c6.8 1.7 13.5 3.7 20.1 6.2 60.5 21.9 108.7 74.7 123.5 137.3H830V180l170 170zM499.4 225.3c-24 0 -45.6 5.6 -63.9 15.7 -37.2 20.8 -60.3 60.4 -60.3 109.6 .1 73.5 52 124.7 126.5 124.7 10 0 19.6 -1.1 28.7 -3l1.5 -.3c.3 -.1 .7 -.2 1 -.2 55.2 -13.4 92.1 -60.2 92 -121.8 0 -73.1 -52 -124.8 -125.5 -124.7z" horiz-adv-x="1000" />
<glyph glyph-name="duplicate" unicode="&#xe915;" d="M787.2 647.8V850H0V52.3h212.8V-150H1000v797.8H787.2zM63 115.6v670.9h661.3V115.7H63zM937 -86.5H275.8V52.2h511.4v532.2H937V-86.5z" horiz-adv-x="1000" />
<glyph glyph-name="edit" unicode="&#xe916;" d="M999.1 268.6v-416.4H-.9v1000h395v-79.6h-315V-68.3h840.1v336.9h79.9zM207.8 247.5L674.3 712 857.6 529.6 391.2 65.2H207.8v182.3z m63.7 -119H365l401 398 -94.4 93.9L271.5 221.5v-93z m598.8 413.7L686.9 724.6l112.9 111.7c10.3 10.3 24.7 16 39.5 15.9 14.5 -.2 27.8 -5.9 37.5 -16L983 730.6c10.2 -9.6 15.8 -22.9 16 -37.3 .2 -14.7 -5.6 -29.1 -16 -39.3L870.3 542.2zM779 726.4l93.6 -93.1 57.2 56.9 -93.6 93.1L779 726.4z" horiz-adv-x="1000" />
<glyph glyph-name="export" unicode="&#xe917;" d="M855.6 253.2c5.4 -5.3 8 -11.7 8 -19.3s-2.7 -14.1 -8 -19.4L519.9 -111c-5.3 -5.3 -11.7 -8 -19.3 -8 -7.6 0 -14.4 2.7 -20.5 8L145.5 214.4c-5.3 5.4 -8 11.9 -8 19.4s2.7 14 8 19.3l67.2 64.9c5.3 5.3 11.7 8 19.3 8 7.6 0 14.4 -2.7 20.5 -8L410.6 163.3v414.2c0 7.5 2.7 14 8 19.3 5.3 5.3 12.2 8 20.5 8h111.6c7.6 0 14.2 -2.7 19.9 -8 5.7 -5.3 8.5 -11.7 8.5 -19.3V151.9L748.7 318c6.1 5.3 12.9 8 20.5 8s14 -2.7 19.3 -8l67.1 -64.8zM978 793.7c-13.3 13.6 -29.4 20.5 -48.4 20.5h-858c-19 0 -35.1 -6.8 -48.4 -20.5S3.3 763.7 3.3 744.8V441H141v234.3h719.2V440.9h137.7v303.9c0 19 -6.6 35.3 -19.9 48.9z" horiz-adv-x="1000" />
<glyph glyph-name="eye" unicode="&#xe918;" d="M502.9 443.5c-39.9 0 -72.3 -32.4 -72.3 -72.3s32.4 -72.3 72.3 -72.3c40 0 72.3 32.4 72.3 72.3s-32.4 72.3 -72.3 72.3z m468 -67.8c-96.5 166.6 -275.8 270.2 -468 270.2S131.4 542.4 35 375.7L22.2 353.5 35 331.3C131.5 164.6 310.7 61.1 502.9 61.1s371.5 103.5 467.9 270.2l12.8 22.2 -12.7 22.2zM125.3 353.5c40.8 61.9 95.8 112 159.2 147C261.3 461.6 247.6 416.3 247.6 367.8c0 -69.3 27.4 -132.1 71.6 -178.7C241.3 224 173.4 280.5 125.3 353.5zM507.7 196.3c-94.6 0 -171.5 76.9 -171.5 171.5 0 94.5 76.9 171.5 171.5 171.5s171.5 -77 171.5 -171.5c0 -94.6 -76.9 -171.5 -171.5 -171.5z m195.7 .8c39.9 45.8 64.4 105.3 64.4 170.7 0 44.9 -11.4 87.2 -31.6 124.1C793.3 457.4 843 410.5 880.5 353.5 835.9 285.8 774.3 232.3 703.4 197.1z" horiz-adv-x="1000" />
<glyph glyph-name="gear" unicode="&#xe919;" d="M500 520.7C405.7 520.7 329.3 444.2 329.3 350S405.7 179.3 500 179.3c94.2 0 170.7 76.4 170.7 170.7 0 94.2 -76.5 170.7 -170.7 170.7z m0 -266.1c-52.6 0 -95.3 42.7 -95.3 95.3s42.7 95.3 95.3 95.3c52.5 0 95.2 -42.8 95.2 -95.3S552.5 254.6 500 254.6z m453.6 219L882.5 499c-2.1 5.4 -4.4 10.9 -6.7 16.2l32.4 68.3 21.1 44.4 -34.8 34.9 -82 81.9 -34.8 34.8 -44.4 -21.1 -68.1 -32.5c-5.4 2.4 -10.8 4.7 -16.3 6.8l-25.3 71.1L607.1 850H392.9l-16.5 -46.3 -25.3 -71.1c-5.5 -2.1 -10.9 -4.4 -16.3 -6.8l-68.1 32.5 -44.4 21.1 -34.8 -34.8 -81.9 -81.9L70.8 627.8l21.1 -44.4 32.4 -68.3c-2.4 -5.4 -4.6 -10.8 -6.7 -16.2L46.5 473.6 0 457.2V242.7l46.4 -16.4L117.5 201c2.1 -5.4 4.3 -10.9 6.7 -16.2L91.8 116.6 70.7 72.1l34.8 -34.8 81.9 -81.9 34.8 -34.7 44.4 21.1 68.1 32.4c5.4 -2.3 10.8 -4.6 16.3 -6.7l25.3 -71.2 16.5 -46.3H607l16.5 46.3 25.3 71.2c5.5 2.1 10.9 4.4 16.3 6.7l68.1 -32.4 44.4 -21.1 34.8 34.7 82 81.9 34.8 34.8 -21.1 44.5 -32.4 68.2c2.4 5.4 4.6 10.8 6.7 16.2l71.1 25.3 46.4 16.4v214.5l-46.3 16.4zM930.2 292.1L827.3 255.5c-7.1 -24.6 -16.9 -48.1 -29 -70.1l46.9 -98.6 -81.9 -82 -98.7 46.9c-22 -12.2 -45.5 -22 -70 -29.1L558 -80.3H442.1L405.5 22.6c-24.386 7.034 -47.902 16.795 -70.1 29.1L236.7 4.8l-81.9 82 47 98.6c-12.2 22 -22 45.5 -29.1 70.1L69.8 292.1v116l102.9 36.5c7.1 24.7 16.9 48.1 29.1 70.2l-47 98.6 81.9 81.9 98.7 -46.9c22 12.2 45.5 22 70.1 29.1l36.6 102.9H558l36.6 -102.9c24.5 -7.1 48.1 -16.9 70 -29.1l98.7 46.9 81.9 -81.9 -46.9 -98.6c12.2 -22.1 22 -45.5 29 -70.2l102.9 -36.5v-116z" horiz-adv-x="1000" />
<glyph glyph-name="graph" unicode="&#xe91a;" d="M649.2 529.8l63.1 104.3 -78.4 46.7 213.4 117.3 -4.1 -241.8L764.8 603 678.3 460.2 428.4 522 196 291.7l-43.2 42.9 256.9 254.6 239.5 -59.4zM357.9 10h122.3v436.7l-33 8.2 -89.3 -88.5V10zM174.4 227.4V10h122.3v295.8L196 205.9l-21.6 21.5z m550.5 191.8V10h122.3v473.2l-61.5 36.5L724.9 419.2zM663.7 10v391.3l-122.3 30.3V10h122.3zM920 266.7V-68.9H80v837.8h315v79.3H0v-996.4h1000v414.9h-80z" horiz-adv-x="1000" />
<glyph glyph-name="hamburger" unicode="&#xe91b;" d="M770.3 561.2H229.7v74h540.6v-74z m0 -91.4H229.7v-74h540.6v74z m0 -165.5H229.7v-74h540.6v74z m0 -165.5H229.7v-74h540.6v74zM1000 850V-150H0V850h1000z m-74.1 -74.1H74.1V-76H926v851.9z" horiz-adv-x="1000" />
<glyph glyph-name="import" unicode="&#xe91c;" d="M145.5 442.1c-5.4 5.3 -8 11.7 -8 19.3 0 7.6 2.7 14.1 8 19.4l335.8 325.4c5.3 5.3 11.7 8 19.3 8 7.6 0 14.4 -2.7 20.5 -8L855.7 480.8c5.3 -5.4 8 -11.9 8 -19.4s-2.7 -14 -8 -19.3l-67.2 -64.9c-5.3 -5.3 -11.7 -8 -19.3 -8s-14.4 2.7 -20.5 8L590.5 532V117.7c0 -7.5 -2.7 -14 -8 -19.3s-12.2 -8 -20.5 -8H450.5c-7.6 0 -14.2 2.7 -19.9 8s-8.5 11.7 -8.5 19.3v425.6L252.5 377.2c-6.1 -5.3 -12.9 -8 -20.5 -8s-14 2.7 -19.3 8l-67.2 64.9zM860.2 254.3V19.9H141v234.4H3.3V-49.5c0 -19 6.6 -35.3 19.9 -48.9S52.6 -119 71.6 -119h858.1c19 0 35.1 6.8 48.4 20.5s19.9 30 19.9 48.9v303.9H860.2z" horiz-adv-x="1000" />
<glyph glyph-name="layout" unicode="&#xe91d;" d="M62.5 701.8h260.2V501.5H62.5v200.3z m307.4 0h260.2V501.5H369.9v200.3z m307.4 0h260.2V501.5H677.3v200.3zM62.5 450.3h875V250h-875v200.3z m0 -251.6h398.2V-1.6H62.5v200.3z m476.8 0h398.2V-1.6H539.3v200.3z" horiz-adv-x="1000" />
<glyph glyph-name="minus-circle" unicode="&#xe91e;" d="M500.2 787.5C258.4 787.5 62.5 591.6 62.5 350.2c0 -241.8 195.9 -437.7 437.7 -437.7 241.4 0 437.3 195.9 437.3 437.7 0 241.4 -195.9 437.3 -437.3 437.3zM801.8 321c-.7 -9 -2.2 -19.1 -4.7 -30.3H203.2c-2.5 11.2 -4.3 21.7 -5.1 31.4 -.7 9.7 -1.1 19.8 -1.1 30.3 0 9 .4 18 1.1 26.7 .7 9 2.5 19.1 5.1 30.3h593.9c2.5 -11.2 4 -21.6 4.7 -31.4 1.1 -9.7 1.4 -19.8 1.4 -30.3 .1 -9.1 -.3 -17.7 -1.4 -26.7z" horiz-adv-x="1000" />
<glyph glyph-name="minus-square" unicode="&#xe91f;" d="M865.3 787.5H134.7C94.6 787.5 62.5 755 62.5 715.3V-15.4c0 -39.7 32.1 -72.2 72.2 -72.2h730.7c39.7 0 72.2 32.5 72.2 72.2v730.7c-.1 39.7 -32.6 72.2 -72.3 72.2zM801.8 321c-.7 -9 -2.2 -19.1 -4.7 -30.3H203.2c-2.5 11.2 -4.3 21.6 -5.1 31.4 -.7 9.7 -1.1 19.8 -1.1 30.3 0 9 .4 18 1.1 26.7 .7 9 2.5 19.1 5.1 30.3h593.9c2.5 -11.2 4 -21.6 4.7 -31.4 1.1 -9.7 1.4 -19.8 1.4 -30.3 .1 -9.1 -.3 -17.7 -1.4 -26.7z" horiz-adv-x="1000" />
<glyph glyph-name="minus" unicode="&#xe920;" d="M794 408.8c2.4 -11.2 4 -21.6 4.8 -31.2 .8 -9.6 1.2 -19.6 1.2 -30 0 -8.8 -.4 -17.6 -1.2 -26.4 -.8 -8.8 -2.4 -18.8 -4.8 -30H206c-2.4 11.2 -4 21.6 -4.8 31.2 -.8 9.6 -1.2 19.7 -1.2 30 0 8.8 .4 17.6 1.2 26.4 .8 8.8 2.4 18.8 4.8 30h588z" horiz-adv-x="1000" />
<glyph glyph-name="pagebuilder" unicode="&#xe921;" d="M300.4 459.2v9.1c-.2 3.2 .4 6.1 3.5 7.6 5.7 2.7 11.1 -4.1 16.1 -7.6 49.2 -35 98.3 -70.2 147.6 -105.1 6.7 -4.8 6.8 -7.6 .9 -13.2C431.8 315.6 374.4 272.3 300 271.5l.4 187.7z m583 -160.6c-18.9 15.3 -31.7 14.8 -47.2 -4.5 -36.5 -45.5 -78.6 -85.6 -122.7 -124C567.7 42.8 396.8 -28.1 207.6 -59.3c-24.9 -4.1 -34.5 2.9 -33.9 29.3 .9 38.9 .7 77.8 .7 116.7v-.2 .2l1.3 548.7 .1 26.4c-.5 9.3 1.1 17.5 10.2 21.9 16.4 7.8 32.2 -11.9 46.4 -22.1C374.7 560.5 516.5 458.5 659 357.7c19.4 -13.7 19.6 -22.1 2.6 -38.1C554.1 218.9 430.5 147 288.2 107.9 237 93.8 237.7 93.9 238.7 42.6c.4 -19.9 6 -27.2 26.9 -22.9 41.4 8.6 81.8 20.7 121.3 35.4 153.6 57.3 283.9 148.3 391.9 271.8 24.4 27.9 25.6 27.1 -4.8 48.8L115.7 842.6c-4.8 3.3 -11.5 8.4 -15.7 7.2C91.8 847.4 94.4 838 94.3 831.4c-.5 -38.2 -.7 -76.4 -.9 -114.6 0 -10.1 -.1 -18.9 -.3 -26.7L91.9 556.6l-1 -110.4 -.5 -51.9L90 312.8l-.5 -57.1 -.6 -64.2L87.3 10.3l-.1 -30.4c-.2 -35.2 .1 -70.4 -.7 -105.5 -.4 -18.1 3 -25.6 25 -24.2 86.6 5.4 171.6 18 255 42.5 208 61.1 382.4 174.2 524.2 337.7 32.4 37.4 30.6 37.5 -7.3 68.2z" horiz-adv-x="1000" />
<glyph glyph-name="paste" unicode="&#xe922;" d="M843.6 744.5v33.6h-85.1V850H555.3v-71.9h-88.2v-33.6H310.7V591.6H0V-150h655.4V4.8H1000v739.7H843.6zM596.4 61.2V-91.1H59v623.8h331V336.5h206.5V61.2zM448.9 395.4v98.1l103.2 -98.1H448.9zM943.5 61.2H655.4v317.3l-224.2 213h-63.9v96.6h99.9v-26h376.5v26h99.9V61.2z" horiz-adv-x="1000" />
<glyph glyph-name="pencil" unicode="&#xe923;" d="M0 81.7V-150h231.7l589.6 590.2L589.6 671.9 0 81.7zM198.7 -69.6H80.4V48.7l505.7 506.8L705.5 436.1 198.7 -69.6z m781 765.1L845.5 829.7c-12.2 12.8 -29 20 -47.4 20.3 -18.7 .2 -36.9 -7.1 -50 -20.1l-142.6 -142L837.2 456.2l142.6 142c13.1 13.1 20.4 31.3 20.2 50 -.2 18.2 -7.4 35 -20.3 47.3zM840.1 571.9L721.9 690.1l72.3 72.3L912.4 644.2l-72.3 -72.3z" horiz-adv-x="1000" />
<glyph glyph-name="plus-circle" unicode="&#xe924;" d="M500.2 787.5C258.4 787.5 62.5 591.6 62.5 350.2c0 -241.8 195.9 -437.7 437.7 -437.7 241.4 0 437.3 195.9 437.3 437.7 0 241.4 -195.9 437.3 -437.3 437.3zM801.8 321c-.7 -9 -2.2 -19.1 -4.7 -30.3H559.4V52.9C548.2 50.4 537.8 48.6 528 47.8c-9.7 -.7 -19.8 -1.1 -30.3 -1.1 -9 0 -17.7 .4 -26.7 1.1 -9 .7 -19.1 2.5 -30.3 5.1v237.7H203.2c-2.5 11.2 -4.3 21.7 -5.1 31.4 -.7 9.7 -1.1 19.8 -1.1 30.3 0 9 .4 17.7 1.1 26.7 .7 9 2.5 19.1 5.1 30.3h237.4v237.5c11.2 2.5 21.6 4 31.4 4.7 9.7 1.1 19.8 1.4 30.3 1.4 9 0 18 -.4 26.7 -1.4 9 -.7 19.1 -2.2 30.3 -4.7V409.4h237.8c2.5 -11.2 4 -21.6 4.7 -31.4 1.1 -9.7 1.4 -19.8 1.4 -30.3 .1 -9.1 -.3 -18.1 -1.4 -26.7z" horiz-adv-x="1000" />
<glyph glyph-name="plus-square" unicode="&#xe925;" d="M865.3 787.5H134.7C94.6 787.5 62.5 755 62.5 715.3V-15.4c0 -39.7 32.1 -72.2 72.2 -72.2h730.7c39.7 0 72.2 32.5 72.2 72.2v730.7c-.1 39.7 -32.6 72.2 -72.3 72.2zM801.8 321c-.7 -9 -2.2 -19.1 -4.7 -30.3H559.4V52.9C548.2 50.4 537.7 48.6 528 47.8c-9.7 -.7 -19.8 -1.1 -30.3 -1.1 -9 0 -17.7 .4 -26.7 1.1 -9 .7 -19.1 2.5 -30.3 5.1v237.7H203.2c-2.5 11.2 -4.3 21.7 -5.1 31.4 -.7 9.7 -1.1 19.8 -1.1 30.3 0 9 .4 17.7 1.1 26.7 .7 9 2.5 19.1 5.1 30.3h237.4v237.5c11.2 2.5 21.6 4 31.4 4.7 9.7 1.1 19.8 1.4 30.3 1.4 9 0 18 -.4 26.7 -1.4 9 -.7 19.1 -2.2 30.3 -4.7V409.4h237.8c2.5 -11.2 4 -21.6 4.7 -31.4 1.1 -9.7 1.4 -19.8 1.4 -30.3 .1 -9.1 -.3 -18.1 -1.4 -26.7z" horiz-adv-x="1000" />
<glyph glyph-name="plus" unicode="&#xe926;" d="M935.4 390.4c-1 14.1 -3.1 29.2 -6.8 45.3h-343v343c-16.1 3.6 -30.7 5.7 -43.8 6.8 -12.5 1.6 -25.5 2.1 -38.5 2.1 -15.1 0 -29.7 -.5 -43.7 -2.1 -14.1 -1 -29.2 -3.1 -45.3 -6.8v-343h-343C67.7 419.6 65 405 64 392c-1 -13 -1.6 -25.5 -1.6 -38.5 0 -15.1 .5 -29.7 1.6 -43.7 1 -14.1 3.6 -29.2 7.3 -45.3h343v-343c16.1 -3.6 30.7 -6.3 43.7 -7.3 13 -1 25.5 -1.6 38.5 -1.6 15.1 0 29.7 .5 43.7 1.6 14.1 1 29.2 3.6 45.3 7.3v343h343c3.6 16.1 5.7 30.7 6.8 43.8 1.6 12.5 2.1 25.5 2.1 38.5 .1 14.9 -.4 29.5 -2 43.6z" horiz-adv-x="1000" />
<glyph glyph-name="publish" unicode="&#xe927;" d="M-1.1 851.7v-1000h1000v1000H-1.1z m74 -926v851.9h493.4V502.2l138 138 138 -138v275.4h82.4V-74.3H72.9z m165.7 273h520.6v-80H238.6v80z m0 193h520.6v-80H238.6v80z m246.6 110.4H238.6v80h246.6v-80z" horiz-adv-x="1000" />
<glyph glyph-name="redo" unicode="&#xe928;" d="M904.7 538.9c0 -3 -2.3 -6.4 -6.9 -10.4L753.6 384.3C681.8 313.2 639 270.7 625.2 256.9c-12.5 -11.8 -26.9 -18.7 -43 -20.7s-31.4 1 -45.9 8.9 -25.2 19.3 -32.1 34.1c-6.9 14.8 -8.7 30.8 -5.4 47.9 2 14.5 9.9 28.7 23.7 42.5l94.8 92.8 -10.9 1H456.3c-27 -.6 -52.6 -7.9 -77 -21.7 -38.8 -22.4 -68 -55 -87.4 -97.8C272.5 301.1 265.6 256 271.2 208.6c5.6 -47.4 24 -88.8 55.3 -124C357.8 49.4 396.2 26.2 441.6 15 460 11.1 478.1 8.7 495.9 8.1c22.4 -.6 40.8 -8.2 55.3 -22.7C565.6 -29 572.9 -47 572.9 -68.4s-7.4 -39.3 -22.2 -53.8c-14.8 -14.4 -33.4 -21.7 -55.8 -21.7 -100.1 1.3 -185.3 35.2 -255.8 101.7C192.3 1.9 158.7 53.6 138.3 112.9c-20.4 58.6 -26.4 118.9 -17.8 180.8 7.9 62.6 30.3 120.2 67.2 172.9 62.6 88.9 143.9 138 244 147.2 21.1 2 48.1 3 81 3 46.8 -.7 73.7 -.7 81 0 8.3 0 12.4 -.2 12.3 -.5 3 .8 5.7 1.9 8.3 3.4 -6 5.7 -22 21.2 -48.2 46.5 -18.4 18.4 -33.9 34.2 -46.4 47.4 -15.8 15.8 -23.5 34.2 -23.2 55.3 .3 21 8.4 39 24.2 53.8s33.7 21.8 53.8 21.2c20.1 -.7 38.3 -9.2 54.8 -25.7L897.9 549.5c4.6 -3.9 6.8 -7.6 6.8 -10.6z" horiz-adv-x="1000" />
<glyph glyph-name="save" unicode="&#xe929;" d="M950 850H162.8l-15.1 -11.2L18.4 722.6 0 708.3v-858.2h1000V850h-50zM273.7 765.8h63.2V597.4h-63.2v168.4zM768.4 -97.4H242.1v326.3h526.3V-97.4z m179 0H821.1v379H189.5V-97.3H52.6v782.4l130.7 112.3h6.2V523.7h631.6v273.7h126.3V-97.4z" horiz-adv-x="1000" />
<glyph glyph-name="settings" unicode="&#xe92a;" d="M553.5 484.3c13.8 20.2 19.7 43.9 16.9 67.1l261.3 261.1 146 -146.2L716.6 405.2c-22.8 2.6 -46.2 -3.1 -66 -16.4l-97.1 95.5zM360.9 236.6L195.1 70.7l-9.6 9.6L136 40.2 52.8 -91.3 74 -112.5l131.6 83.3 39.9 49.3 -9.4 9.8 166.1 165.9 -41.3 40.8zM896.7 44.4c34.4 -34.4 34.2 -90.1 -.2 -124.7 -34.4 -34.4 -90.3 -34.6 -124.7 -.2L319.5 372c-18.7 18.7 -45.1 27.5 -71.2 23.9 -59.5 -7.9 -121.9 11 -167.5 56.8C34.2 499.3 15.4 563.2 24.5 623.6c1.5 9.7 13.3 13.6 20.2 6.7l60.6 -60.6c28.8 -28.8 75.4 -28.8 104.1 0l37.2 37.2c28.8 28.8 28.8 75.4 0 104.2L186 771.8c-6.9 6.9 -3 18.7 6.7 20.2 60.6 9 124.3 -9.7 170.9 -56.3 45.6 -45.6 64.7 -108.1 56.8 -167.5 -3.4 -26.2 5.4 -52.5 24.1 -71L896.7 44.4zM844.6 8L383.1 469.4c-10.1 10.1 -26.2 10.1 -36.3 0 -10.1 -9.9 -10.1 -26.2 0 -36.3L808.3 -28.4c10.1 -10.1 26.2 -10.1 36.3 0 10.1 10.2 10.1 26.3 0 36.4z" horiz-adv-x="1000" />
<glyph glyph-name="templates" unicode="&#xe92b;" d="M944.4 155.6h55.6V44.5h-55.6z m-416.6 -250h111.1V-150H527.8z m416.6 416.6h55.6V211.1h-55.6zM55.6 -11.1H0V-150h138.9v55.6H55.6z m305.5 -83.3h111.1V-150H361.1z m-166.7 0h111.1V-150H194.4z m750 583.3h55.6V377.8h-55.6z m-250 -583.3h111.1V-150H694.4z m250 750h55.6V544.5h-55.6z m0 -750h-83.3V-150H1000v138.9h-55.6zM0 155.6h55.6V44.5H0zM194.4 850h111.1v-55.6H194.4zM0 655.6h55.6V544.5H0zM0 488.9h55.6V377.8H0zM694.4 850h111.1v-55.6H694.4zM0 711.1h55.6v83.3h83.3V850H0zM0 322.2h55.6V211.1H0zM361.1 850h111.1v-55.6H361.1z m166.7 0h111.1v-55.6H527.8z m333.3 0v-55.6h83.3v-83.3h55.6V850zM160.2 10.2h679.6v679.6H160.2V10.2z m51.6 628h576.3V535.8H211.8v102.4z m0 -530.2v376.2h576.3V61.9H211.8V108z" horiz-adv-x="1000" />
<glyph glyph-name="trash" unicode="&#xe92c;" d="M384.1 35.6H317v354.8h67.1V35.6z m148.5 354.8h-67.1V35.7h67.1v354.7z m148.5 0H614V35.7h67.1v354.7z m225.2 324.5V506.2h-67.1v-654.5H168.5v654.5H91.9v208.7H317v136.9h364.2V714.9h225.1z m-522.2 0h230v70.5h-230v-70.5zM772.2 496.8H235.6V-81.8h536.6v578.6z m67 151.7H158.9v-75.9h680.3v75.9z" horiz-adv-x="1000" />
<glyph glyph-name="undo" unicode="&#xe92d;" d="M872.5 112.9C852.1 53.6 818.5 1.9 771.7 -42.2 701.3 -108.7 616 -142.6 515.9 -143.9c-22.4 0 -41 7.3 -55.8 21.7 -14.8 14.5 -22.2 32.4 -22.2 53.8s7.3 39.4 21.7 53.8c14.5 14.5 32.9 22.1 55.3 22.7 17.8 .6 35.9 3 54.3 6.9 45.4 11.2 83.8 34.4 115.1 69.6 31.3 35.2 49.7 76.6 55.3 124s-1.3 92.5 -20.7 135.3 -48.6 75.4 -87.4 97.8c-24.4 13.8 -50 21.1 -77 21.7H404.4l-10.9 -1 94.8 -92.8c13.8 -13.8 21.7 -28 23.7 -42.5 3.3 -17.1 1.5 -33.1 -5.4 -47.9C499.7 264.4 489 253 474.5 245.1c-14.5 -7.9 -29.8 -10.9 -45.9 -8.9 -16.1 2 -30.5 8.9 -43 20.7C371.8 270.7 329 313.2 257.2 384.3L112.9 528.8c-4.6 4 -6.9 7.4 -6.9 10.4s2.3 6.4 6.9 10.3l268.6 268.7c16.5 16.5 34.7 25 54.8 25.7 20.1 .6 38 -6.4 53.8 -21.2s23.9 -32.8 24.2 -53.8c.3 -21.1 -7.4 -39.5 -23.2 -55.3 -12.5 -13.2 -28 -29 -46.4 -47.4 -26.2 -25.3 -42.2 -40.8 -48.2 -46.5 2.6 -1.5 5.3 -2.6 8.3 -3.4 -.1 .3 4 .5 12.3 .5 7.3 -.7 34.2 -.7 81 0 32.9 0 59.9 -1 81 -3 100.1 -9.2 181.4 -58.3 244 -147.2C860 413.9 882.4 356.3 890.3 293.7c8.6 -61.9 2.6 -122.2 -17.8 -180.8z" horiz-adv-x="1000" />
</font>
</defs>
</svg>
